<?xml version="1.0" standalone="no"?>
<!DOCTYPE svg PUBLIC "-//W3C//DTD SVG 1.1//EN" "http://www.w3.org/Graphics/SVG/1.1/DTD/svg11.dtd" >
<svg xmlns="http://www.w3.org/2000/svg" xmlns:xlink="http://www.w3.org/1999/xlink" version="1.1">
<metadata>
Created by FontForge 20170731 at Mon Dec 20 13:03:50 2021
 By Aleksey,,,
Copyright (c) 1986, 1990, 1991, 1998, 2001 Adobe Systems Incorporated.  All Rights Reserved.
</metadata>
<defs>
<font id="BodoniStd-Bold" horiz-adv-x="1024" >
  <font-face 
    font-family="Bodoni Std"
    font-weight="700"
    font-stretch="normal"
    units-per-em="2048"
    panose-1="2 7 8 3 7 7 6 2 3 3"
    ascent="1430"
    descent="-618"
    x-height="811"
    cap-height="1368"
    bbox="-344 -512 2056 1956"
    underline-thickness="102"
    underline-position="-307"
    unicode-range="U+0020-FB02"
  />
<missing-glyph 
d="M0 0v1434h1024v-1434h-1024zM512 809l348 522h-696zM573 717l349 -522v1044zM164 102h696l-348 523zM102 1239v-1044l349 522z" />
    <glyph glyph-name="fi" unicode="fi" horiz-adv-x="1138" 
d="M434 754v-697h105v-57h-527v61h140v693h-140v57h144q32 313 151.5 450.5t343.5 137.5q45 0 93 -10.5t94.5 -32t76 -60.5t29.5 -90q0 -59 -39 -97t-98 -38q-60 0 -100.5 49.5t-22.5 106.5q1 4 14 33.5t13 44.5q0 17 -14 25.5t-26.5 9.5t-33.5 1h-6q-48 0 -84 -20.5
t-57 -51.5t-34 -74.5t-17.5 -83t-4.5 -83.5v-217h299q45 0 139 4q90 4 138 4v-762h118v-57h-514v57h113v697h-293z" />
    <glyph glyph-name="fl" unicode="fl" horiz-adv-x="1138" 
d="M432 811h293v270q-41 14 -65.5 46t-24.5 75q0 38 24 72q24 32 9 49.5t-58 17.5q-63 0 -120.5 -75t-57.5 -197v-258zM150 57v697h-134v57h134q-7 108 25.5 214t94 188.5t155 134t200.5 51.5q25 0 108 -19q71 -16 107 -10l168 29v-1342h118v-57h-508v57h107v697h-293v-697
h107v-57h-527v57h138z" />
    <glyph glyph-name=".notdef" 
d="M0 0v1434h1024v-1434h-1024zM512 809l348 522h-696zM573 717l349 -522v1044zM164 102h696l-348 523zM102 1239v-1044l349 522z" />
    <glyph glyph-name=".null" horiz-adv-x="0" 
 />
    <glyph glyph-name="nonmarkingreturn" horiz-adv-x="682" 
 />
    <glyph glyph-name="space" unicode=" " horiz-adv-x="624" 
 />
    <glyph glyph-name="exclam" unicode="!" horiz-adv-x="681" 
d="M365 446h-62q2 91 -6 275q-8 146 -84 311q-41 89 -41 146q0 79 42 132.5t126 53.5q75 0 115.5 -54t40.5 -132q0 -57 -41 -146q-76 -165 -84 -311q-8 -184 -6 -275zM334 305q68 0 119 -50t51 -118q0 -70 -50 -119t-120 -49q-69 0 -118.5 50t-49.5 118q0 67 50 117.5
t118 50.5z" />
    <glyph glyph-name="quotedbl" unicode="&#x22;" horiz-adv-x="819" 
d="M176 887l-45 364q0 148 109 148q47 0 71.5 -31.5t24.5 -79.5q0 -44 -10 -102l-47 -283q-8 -64 -27 -81q-10 -9 -25 -9q-7 0 -12.5 1.5t-10 4.5t-7.5 6t-6 9t-4.5 9.5t-3.5 11t-3 10.5t-2.5 11.5t-1.5 10.5zM528 887l-45 364q0 148 109 148q47 0 71.5 -31.5t24.5 -79.5
q0 -44 -10 -102l-47 -283q-8 -61 -23 -77q-11 -13 -28 -13q-18 0 -29 11.5t-15 24.5t-7 31q-1 5 -1 7z" />
    <glyph glyph-name="numbersign" unicode="#" horiz-adv-x="1251" 
d="M473 1362h150l-66 -346h258l66 346h149l-65 -346h190v-146h-219l-59 -309h194v-145h-221l-78 -416h-145l78 416h-263l-77 -416h-150l78 416h-217v145h246l59 309h-188v146h215zM788 870h-260l-57 -309h260z" />
    <glyph glyph-name="dollar" unicode="$" horiz-adv-x="1251" 
d="M532 -33v-254h-59v254q-63 4 -124.5 24.5t-114.5 56t-86 91.5t-33 123t42.5 120.5t108.5 53.5q64 0 97.5 -34t33.5 -99q0 -43 -14.5 -67t-65.5 -62q-5 -4 -17.5 -11t-20 -13.5t-9.5 -12.5q-5 -23 37.5 -50t92.5 -43.5t73 -16.5v516q-153 45 -235 140t-82 237
q0 127 89 238t214 140q7 2 11 9.5t5 19t0.5 22t-1.5 24t-1 18.5v100h59v-176q59 12 179 8v170h59v-174q69 -10 135.5 -46t114 -98t47.5 -133q0 -62 -31.5 -100.5t-91.5 -38.5q-51 0 -83 36t-32 87q0 48 48 96q5 5 18 15t20 17.5t7 14.5q0 32 -56.5 61.5t-95.5 33.5v-480
q94 -19 175 -70t134.5 -133.5t53.5 -177.5q0 -162 -99.5 -268.5t-263.5 -146.5v-275h-59v269q-26 -6 -55 -9t-68 -4t-56 -2zM532 1260v-426q26 -4 56.5 -10t66.5 -14.5t56 -12.5v471q-105 7 -179 -8zM473 846v403q-80 -22 -138.5 -80.5t-58.5 -136.5q0 -75 58.5 -122.5
t138.5 -63.5zM770 473v-430q104 29 164.5 81t60.5 146q0 37 -14 67.5t-34 50.5t-53.5 37.5t-59.5 27t-64 20.5zM532 530v-505q60 -8 179 8v454q-35 7 -102 24t-77 19z" />
    <glyph glyph-name="percent" unicode="%" horiz-adv-x="2048" 
d="M514 -61l733 1261l-4 4q-127 -86 -270 -86q-75 0 -146 21q13 -90 -15 -193t-84.5 -189.5t-143.5 -144t-183 -57.5q-125 0 -204.5 76t-79.5 200q0 90 36 174t91 142.5t119 103t122 66.5t99 22q74 0 134.5 -33t88.5 -98q102 -37 172 -37q104 0 216 63t140 134q3 9 9.5 14.5
t15 7t14.5 2t15.5 0t11.5 -0.5h51l-834 -1452h-104zM635 1255q-47 -6 -115 -101t-118 -220t-50 -209q0 -41 32 -72.5t73 -31.5q69 0 131.5 48t103 119.5t64.5 149.5t24 141q0 41 -8 74q-74 45 -137 102zM1618 770q111 0 168 -71.5t57 -184.5q0 -87 -32 -179.5t-86.5 -169
t-137 -126t-174.5 -49.5q-126 0 -206.5 73t-80.5 197q0 104 47 201t119 163t159 106t167 40zM1683 692q-63 0 -140 -98.5t-127 -223.5t-50 -204q0 -111 104 -111q69 0 132.5 49t104.5 121.5t65 151t24 141.5q0 40 -9 77t-36 67t-68 30z" />
    <glyph glyph-name="ampersand" unicode="&#x26;" horiz-adv-x="1593" 
d="M932 1032v101q0 90 -36.5 132t-121.5 42q-54 0 -98.5 -26.5t-44.5 -78.5q0 -57 53 -137l121 -191q57 32 90.5 68.5t36.5 89.5zM1020 0l-80 125q-94 -75 -214.5 -115.5t-244.5 -40.5q-167 0 -289 104.5t-122 266.5q0 81 37.5 154t100.5 126t135.5 90.5t150.5 59.5
q-50 80 -76.5 149.5t-26.5 147.5q0 84 58 154.5t147 108.5t184 38q84 0 152.5 -16t112 -41.5t73 -59t41.5 -66.5t12 -65q0 -57 -31.5 -108.5t-82 -87t-105 -59.5t-108.5 -36l297 -419q49 75 93 162.5t44 138.5q0 26 -28.5 39.5t-57.5 13.5h-117v61h475v-61h-55
q-70 0 -102.5 -23t-53.5 -73q-78 -191 -161 -314l192 -293h180v-61h-530zM905 176l-375 539q-65 -13 -110 -59t-45 -109q0 -94 39 -160l84 -145q41 -71 88 -109.5t119 -38.5q109 0 200 82z" />
    <glyph glyph-name="quotesingle" unicode="'" horiz-adv-x="450" 
d="M168 887l-45 364q0 148 108 148q47 0 72 -32t25 -79q0 -38 -11 -102l-47 -283q-8 -61 -23 -77q-12 -13 -28 -13q-7 0 -12.5 1.5t-10 4.5t-7.5 6t-6 9t-4.5 9.5t-3.5 11t-3 10.5t-2.5 11.5t-1.5 10.5z" />
    <glyph glyph-name="parenleft" unicode="(" horiz-adv-x="681" 
d="M561 1399l29 -21q-55 -63 -96.5 -124t-70 -113.5t-47.5 -117t-29.5 -113.5t-15.5 -125.5t-6 -131t-1 -151.5q0 -77 0.5 -119t2.5 -104.5t6 -98.5t11.5 -88t18.5 -86t27 -80.5t37.5 -83.5t50 -82t64 -89.5t79.5 -94.5l-43 -27q-67 67 -112 113t-104 114t-97.5 122.5
t-80.5 126t-66 138.5t-39.5 147t-15.5 163q0 137 40 268.5t114 248.5t155.5 212.5t188.5 196.5z" />
    <glyph glyph-name="parenright" unicode=")" horiz-adv-x="681" 
d="M94 1378l29 21q107 -101 188.5 -196.5t155.5 -212.5t114 -248.5t40 -268.5q0 -83 -15.5 -163t-39.5 -147t-66 -138.5t-80.5 -126t-97.5 -122.5t-104 -114t-112 -113l-43 27q44 50 79.5 94.5t64 89.5t50 82t37.5 83.5t27 80.5t18.5 86t11.5 88t6 98.5t2.5 104.5t0.5 119
q0 97 -1 151.5t-6 131t-15.5 125.5t-29.5 113.5t-47.5 117t-70 113.5t-96.5 124z" />
    <glyph glyph-name="asterisk" unicode="*" horiz-adv-x="1251" 
d="M580 868q-53 -36 -76 -61t-37.5 -55.5t-30.5 -51.5q-25 -30 -60 -45t-67 -8q-38 6 -63 51q-26 42 -13 80q9 32 40.5 54.5t70.5 27.5q44 7 63.5 3t56.5 4.5t95 35.5q25 25 2 35q-58 28 -95 36.5t-57 4t-65 2.5q-38 6 -69.5 28.5t-41.5 53.5q-10 39 15 80q25 45 61 51
q33 7 68 -8t59 -45q17 -22 32 -51.5t38 -54.5t76 -62q20 -10 20 14q-5 64 -16 96.5t-29.5 59.5t-28.5 53q-14 35 -10 74t27 63q26 29 76 29q52 0 75 -29q23 -24 27 -63t-10 -74q-10 -25 -28.5 -53t-28 -60t-13.5 -96q-6 -12 6 -19t23 1q42 28 66 51t31.5 37t19.5 36t28 42
q24 30 59 46t68 9q40 -10 62 -51q24 -47 14 -80q-10 -31 -41.5 -54.5t-69.5 -29.5q-45 -7 -65 -2.5t-57 -3.5t-95 -35q-13 -4 -12.5 -13.5t14.5 -9.5q58 -27 95 -35t57 -3.5t65 -2.5q38 -6 69.5 -29.5t41.5 -54.5q9 -36 -14 -79q-25 -46 -62 -52q-33 -7 -68 9t-59 47
q-16 20 -28 42t-19.5 36t-31.5 37t-66 51q-15 13 -27 6.5t-4 -23.5q4 -64 14.5 -96t29 -60t28.5 -53q14 -35 10 -74t-27 -63q-29 -29 -75 -29q-51 0 -76 29q-23 24 -27 63t10 74q10 25 28.5 53t29 60t14.5 96q5 14 -4 17.5t-18 -9.5z" />
    <glyph glyph-name="plus" unicode="+" 
d="M59 539h371v370h166v-370h371v-166h-371v-371h-166v371h-371v166z" />
    <glyph glyph-name="comma" unicode="," horiz-adv-x="681" 
d="M254 -377l-12 53q87 43 145.5 124.5t58.5 174.5q0 70 -24 105q-9 -52 -49.5 -81.5t-96.5 -29.5q-58 0 -97.5 43t-39.5 101q0 74 51.5 126t124.5 52q105 0 167.5 -79.5t62.5 -186.5q0 -126 -84.5 -236t-206.5 -166z" />
    <glyph glyph-name="hyphen" unicode="-" horiz-adv-x="681" 
d="M633 307h-584v209h584v-209z" />
    <glyph glyph-name="period" unicode="." horiz-adv-x="681" 
d="M315 305q68 0 119 -50t51 -118q0 -70 -50 -119t-120 -49q-69 0 -118.5 50t-49.5 118q0 67 50.5 117.5t117.5 50.5z" />
    <glyph glyph-name="slash" unicode="/" horiz-adv-x="569" 
d="M-12 0l424 1399h170l-422 -1399h-172z" />
    <glyph glyph-name="zero" unicode="0" horiz-adv-x="1251" 
d="M813 315v729q0 84 -14 139t-42.5 81.5t-59 35.5t-74.5 9t-74.5 -9t-58.5 -35.5t-42.5 -81.5t-15.5 -139v-729q-1 -158 47.5 -225t143.5 -67q94 0 142 66.5t48 225.5zM623 1362q118 0 223.5 -64.5t175.5 -165t111 -219.5t41 -231q0 -93 -24.5 -192t-73 -192t-113.5 -166.5
t-153.5 -118t-186.5 -44.5t-186.5 44.5t-153.5 118t-113.5 166.5t-73 192t-24.5 192q0 112 41 231t111 219.5t175.5 165t223.5 64.5z" />
    <glyph glyph-name="one" unicode="1" horiz-adv-x="1251" 
d="M1042 0h-804v61h256v1149q0 62 -80 62h-176v61h176q57 0 120 4.5t141.5 13t119.5 11.5v-1301h247v-61z" />
    <glyph glyph-name="two" unicode="2" horiz-adv-x="1251" 
d="M1063 0h-983v182q61 46 181.5 137.5t180.5 137.5q85 65 135 112.5t91 109.5t58 135.5t17 172.5q0 80 -26 147t-84.5 111.5t-140.5 44.5q-98 0 -183 -55q-23 -14 -57.5 -45t-34.5 -49q0 -29 51 -29q79 0 131 -37t52 -112q0 -68 -45 -106t-115 -38q-82 0 -126 58t-44 141
q0 144 130.5 244t354.5 100q71 0 137 -11.5t130 -38.5t111.5 -67t76.5 -102t29 -139q0 -100 -50.5 -177.5t-144.5 -160.5q-80 -70 -184 -139t-226.5 -143.5t-195.5 -125.5h651q33 0 49.5 21t18 51t2.5 62.5t2 56.5h71z" />
    <glyph glyph-name="three" unicode="3" horiz-adv-x="1251" 
d="M629 733v-4q47 -8 74 -13.5t72.5 -16t73.5 -20.5t66 -26.5t62 -34.5t50 -44t41 -55.5t24.5 -68t9.5 -83.5q0 -79 -35.5 -145.5t-96 -112.5t-140 -78t-167 -47t-178.5 -15q-169 0 -278 81t-109 175q0 74 37.5 123t110.5 49q68 0 115 -38.5t47 -104.5q0 -74 -56 -115
q-8 -5 -20.5 -13t-19 -12t-12 -10.5t-5.5 -13.5q0 -30 77 -45.5t124 -15.5q123 0 188.5 79.5t65.5 219.5q0 191 -73 272.5t-243 81.5q-22 0 -61 -2t-58 -2q-23 0 -23 29t19 32q24 3 68.5 6.5t54.5 4.5q153 15 208.5 83.5t55.5 223.5q0 141 -40.5 194.5t-149.5 53.5
q-146 0 -146 -54q0 -6 6 -11.5t21 -15t23 -14.5q49 -35 49 -106q0 -64 -41 -102.5t-105 -38.5q-57 0 -97 41t-40 98q0 118 107 189t284 71q75 0 150.5 -16.5t146 -50.5t114.5 -96.5t44 -143.5q0 -60 -26 -110t-64 -83t-94 -60t-104.5 -41.5t-106.5 -27.5z" />
    <glyph glyph-name="four" unicode="4" horiz-adv-x="1251" 
d="M698 1362h203v-930h137q36 0 53 13.5t18 35t0.5 48.5t0.5 55h55v-357h-55q0 16 0.5 40t1 33t-1.5 24t-4 19t-8.5 12t-13.5 9t-22 4t-30 3h-41h-90v-310h162v-61h-655v61h184v310h-545q1 17 -0.5 34.5t-1.5 26t5 22t18 31.5zM104 432h488v694z" />
    <glyph glyph-name="five" unicode="5" horiz-adv-x="1251" 
d="M944 1423h51v-39q0 -159 -43 -222.5t-164 -63.5h-514l-6 -346q148 57 299 57q72 0 146 -14t146 -45t127.5 -76t89.5 -112.5t34 -147.5q0 -96 -37.5 -174t-98 -127.5t-142.5 -82.5t-166 -47t-172 -14q-176 0 -285 82t-109 207q0 62 49 98.5t113 36.5q65 0 104.5 -42.5
t39.5 -106.5q0 -71 -54 -107q-6 -4 -19 -11.5t-18.5 -11.5t-10.5 -11t-5 -15t12 -20t33.5 -24.5t58.5 -21t80 -8.5q78 0 132.5 24.5t84 71.5t42 104t12.5 132q0 373 -293 373q-30 0 -63 -5t-76.5 -15t-61.5 -13q-12 -2 -21 0t-14 9t-8 14t-4 19t-1 20t0.5 21t0.5 19l10 418
q2 77 21.5 106t89.5 29h518q58 0 73 12t19 70z" />
    <glyph glyph-name="six" unicode="6" horiz-adv-x="1251" 
d="M823 295v301q0 109 -43 147.5t-127 38.5q-71 0 -140 -51.5t-69 -91.5v-315q0 -170 44 -233.5t169 -63.5q95 0 129.5 61.5t36.5 206.5zM1006 1362v-62q-123 -2 -224.5 -47.5t-169 -123t-107.5 -177t-50 -213.5q67 61 126 90t138 29q110 0 212.5 -53t168 -148.5
t65.5 -207.5q0 -65 -21 -131.5t-66 -129.5t-108.5 -111.5t-155.5 -78t-200 -29.5q-125 0 -227.5 52t-165.5 137t-97 187.5t-34 209.5q0 131 50 254.5t138.5 221t203 172t250 115.5t274.5 44z" />
    <glyph glyph-name="seven" unicode="7" horiz-adv-x="1251" 
d="M1145 1362v-88l-271 -445q-45 -74 -95 -201t-50 -190q0 -11 2 -24.5t4.5 -23.5t8 -27t8 -24t10.5 -28t10 -26q41 -105 41 -152q0 -85 -54.5 -124.5t-140.5 -39.5q-89 0 -133.5 50t-44.5 143q0 18 6.5 42.5t14.5 47.5t24 55.5t27 54.5t31 56.5t29.5 49.5t28.5 47t22 36
l338 547h-601h-20q-51 1 -65 -10q-18 -12 -42 -82q-3 -10 -11 -33q-14 -41 -23 -66h-62l144 455h864z" />
    <glyph glyph-name="eight" unicode="8" horiz-adv-x="1251" 
d="M455 1128v-237q0 -93 42 -129.5t117 -36.5t117.5 36.5t42.5 129.5v237q0 96 -35.5 138.5t-124.5 42.5t-124 -42.5t-35 -138.5zM733 702l-4 -4q61 -10 118 -27t115 -46.5t100.5 -68t69.5 -94.5t27 -122q0 -74 -33 -139.5t-97.5 -118t-171 -83t-243.5 -30.5t-243.5 30.5
t-170.5 83t-97 118t-33 139.5q0 66 27 122t69.5 94.5t100.5 68t115 46.5t118 27v4q-187 41 -284 116t-97 210q0 83 47.5 149.5t123 105.5t159 59t165.5 20q61 0 127 -12t132.5 -39t118.5 -64.5t85 -94.5t33 -124q0 -63 -23 -114.5t-59.5 -86t-88 -60.5t-101 -40.5
t-105.5 -24.5zM416 444v-219q0 -112 47 -157t151 -45q105 0 152 45t47 157v219q-1 22 -10 52.5t-29.5 69t-62 65t-97.5 26.5q-45 0 -81.5 -18t-57.5 -44t-35 -57.5t-19 -54.5t-5 -39z" />
    <glyph glyph-name="nine" unicode="9" horiz-adv-x="1251" 
d="M793 696v434q0 82 -53.5 127.5t-164.5 45.5q-74 0 -119.5 -62t-45.5 -151v-351q0 -97 39 -145.5t129 -48.5q46 0 98 28.5t84.5 64t32.5 58.5zM227 -31v56q180 -8 357 137q80 64 120.5 151.5t73.5 274.5q-130 -119 -264 -119q-114 0 -217 55.5t-167 153.5t-64 213
q0 104 49.5 194.5t129 150t177.5 93t196 33.5q59 0 125 -18t138.5 -62t129.5 -109t94.5 -169.5t37.5 -231.5q0 -188 -107 -363t-272 -280q-129 -82 -257 -118.5t-280 -41.5z" />
    <glyph glyph-name="colon" unicode=":" horiz-adv-x="681" 
d="M338 823q68 0 119 -50t51 -118q0 -70 -50 -119t-120 -49q-69 0 -118.5 50t-49.5 118q0 67 50 117.5t118 50.5zM338 305q68 0 119 -50t51 -118q0 -70 -50 -119t-120 -49q-69 0 -118.5 50t-49.5 118q0 67 50 117.5t118 50.5z" />
    <glyph glyph-name="semicolon" unicode=";" horiz-adv-x="681" 
d="M283 -377l-13 53q88 43 146.5 124.5t58.5 174.5q0 70 -24 105q-9 -52 -49.5 -81.5t-96.5 -29.5q-58 0 -97.5 43t-39.5 101q0 74 51.5 126t124.5 52q105 0 167 -79.5t62 -186.5q0 -126 -84 -236.5t-206 -165.5zM367 823q68 0 119 -50t51 -118q0 -70 -50 -119t-120 -49
q-69 0 -118.5 50t-49.5 118q0 67 50.5 117.5t117.5 50.5z" />
    <glyph glyph-name="less" unicode="&#x3c;" 
d="M995 96v-162l-966 441v160l966 444v-164l-805 -362z" />
    <glyph glyph-name="equal" unicode="=" 
d="M59 678h908v-166h-908v166zM59 399h908v-166h-908v166z" />
    <glyph glyph-name="greater" unicode="&#x3e;" 
d="M29 96l805 357l-805 362v164l966 -444v-160l-966 -441v162z" />
    <glyph glyph-name="question" unicode="?" horiz-adv-x="909" 
d="M391 457h-53q-2 8 -17 64t-21.5 90.5t-6.5 64.5q0 79 44.5 148.5t123.5 148.5q96 96 120 127q46 59 46 104q0 43 -17.5 73t-49 46t-65.5 22.5t-75 6.5q-52 0 -112.5 -21t-67.5 -63q-1 -6 11.5 -10.5t34.5 -15.5t38 -28q36 -39 36 -94q0 -58 -38.5 -87t-98.5 -29
q-59 0 -95 38.5t-36 98.5q0 57 34 108t85 86q59 39 107 51.5t124 12.5q154 0 265.5 -91t111.5 -241q0 -49 -12.5 -91.5t-28.5 -71t-51.5 -62.5t-59 -52.5t-73.5 -54.5q-142 -105 -167 -127q-46 -43 -47 -86q0 -23 11 -65zM395 305q68 0 119 -50t51 -118q0 -70 -50 -119
t-120 -49q-69 0 -118.5 50t-49.5 118q0 67 50.5 117.5t117.5 50.5z" />
    <glyph glyph-name="at" unicode="@" horiz-adv-x="1474" 
d="M1137 1036l-174 -465q-2 -7 -11 -28.5t-14.5 -39.5t-5.5 -30q0 -19 13.5 -28t31.5 -9q24 0 60 15t77.5 48t77 77t59 110t23.5 139q0 38 -10.5 86t-44 111.5t-85.5 114.5t-145 87t-211 36q-153 0 -285 -75t-211 -206t-79 -285q0 -165 77 -299.5t210.5 -210t295.5 -75.5
q157 0 291.5 69t210.5 199h123q-76 -199 -246 -303.5t-389 -104.5q-197 0 -360.5 94t-258 258t-94.5 361q0 148 56.5 281.5t152 228.5t227.5 151t277 56q152 0 276.5 -50.5t201.5 -133t118 -181.5t41 -203q0 -220 -139 -374q-68 -72 -161.5 -116t-188.5 -44q-55 0 -95 26
t-41 78q-108 -100 -210 -100q-100 0 -154.5 67.5t-54.5 170.5q0 68 18.5 142t55 143t85.5 124t115.5 88t138.5 33q81 0 142 -61l10 28h203zM582 485q0 -18 8.5 -33.5t25.5 -15.5q43 0 86.5 61.5t65.5 120.5q86 202 86 269q0 45 -37 45q-52 0 -109.5 -93t-91.5 -198t-34 -156
z" />
    <glyph glyph-name="A" unicode="A" horiz-adv-x="1366" 
d="M428 0h-424v61q28 0 44.5 1t44.5 6t46.5 18.5t26.5 34.5l483 1278h80l508 -1338h123v-61h-649v61h157l-110 322h-420l-53 -147q-41 -109 -41 -140q0 -14 15.5 -23t42 -11.5t48.5 -3t49 1t29 1.5v-61zM551 946l-186 -502h368z" />
    <glyph glyph-name="B" unicode="B" horiz-adv-x="1478" 
d="M584 61h241q33 0 58.5 8t42 19t28 33t17 39t8 48.5t2.5 50.5t-1 56t-1 54q0 53 -1 85t-6 68t-13.5 55.5t-24 40.5t-37.5 31t-54.5 18.5t-73.5 11.5t-97 3h-88v-621zM584 1307v-564h88q59 0 95 3t69 14.5t49.5 30t29.5 54t17 82t4 117.5q0 53 -0.5 82t-4.5 61.5t-8.5 47.5
t-17 31.5t-26 22t-39 11t-52 6.5t-69.5 1h-135zM791 0h-691v61h140v1246h-146v61h762q70 0 141.5 -17.5t136.5 -52t108 -94.5t48 -137q8 -126 -86 -218t-315 -134v-4q64 -2 127 -14.5t126 -40.5t111 -67t77.5 -98.5t29.5 -130.5q0 -104 -61 -181.5t-160 -125.5
q-47 -24 -114 -36.5t-114 -14.5t-120 -2z" />
    <glyph glyph-name="C" unicode="C" horiz-adv-x="1366" 
d="M1090 1288l69 80h70v-381h-60q-33 80 -65.5 136.5t-80 108.5t-112.5 78.5t-147 26.5q-52 0 -85.5 -7t-65 -30.5t-49 -66t-31.5 -114.5t-19.5 -174.5t-5.5 -248.5q0 -424 39.5 -544.5t224.5 -120.5q85 0 153.5 28.5t118 81.5t84 117.5t60.5 147.5h69v-406h-73l-80 76
q-166 -107 -326 -107q-134 0 -257 56.5t-213.5 152.5t-144.5 231.5t-54 286.5q0 77 31 171t90.5 187.5t137 170.5t180.5 125.5t210 48.5q193 0 332 -111z" />
    <glyph glyph-name="D" unicode="D" horiz-adv-x="1593" 
d="M244 61v1246h-154v61h762q131 0 249.5 -55t203 -146.5t134.5 -215.5t50 -257q0 -134 -36 -246t-94.5 -188t-136.5 -131t-158.5 -83t-164.5 -36q-113 -10 -207 -10h-602v61h154zM588 1307v-1246h194q127 0 195 49t96 142q23 75 23 203v481q0 165 -39 250q-30 65 -91.5 93
t-183.5 28h-194z" />
    <glyph glyph-name="E" unicode="E" horiz-adv-x="1366" 
d="M1272 0h-1190v61h164v1246h-146v61h1121l12 -369h-70q-65 174 -146.5 241t-234.5 67h-192v-572q76 0 123 11.5t79 43t48.5 74.5t33.5 119h68v-582h-68q-22 152 -79.5 207.5t-204.5 55.5v-603h201q67 0 121 9.5t93.5 25t71 43.5t52 56.5t38.5 73t29.5 83.5t24.5 97h63z
" />
    <glyph glyph-name="F" unicode="F" horiz-adv-x="1251" 
d="M745 0h-690v61h154v1246h-158v61h1139l12 -403h-61q-60 198 -141.5 270t-231.5 72h-215v-570q76 0 123.5 11.5t79 43t48.5 74.5t34 119h67v-582h-67q-22 151 -80 207t-205 56v-605h192v-61z" />
    <glyph glyph-name="G" unicode="G" horiz-adv-x="1478" 
d="M1094 1296l69 72h72v-395h-72q-41 159 -143.5 261.5t-220.5 102.5q-120 0 -186 -58.5t-95 -162.5q-20 -76 -20 -203v-413q0 -82 1.5 -128t11 -115.5t28.5 -121.5q25 -65 72.5 -84.5t144.5 -19.5t144.5 46t47.5 126v258h-176v61h655v-61h-122v-211q0 -20 -52 -76t-82 -80
q-47 -39 -93.5 -63.5t-134 -43t-204.5 -18.5q-174 0 -323.5 99.5t-234.5 259t-85 336.5q0 120 37 233t102.5 202.5t150.5 157.5t186 105t204 37q163 0 318 -103z" />
    <glyph glyph-name="H" unicode="H" horiz-adv-x="1593" 
d="M731 0h-663v61h149v1246h-149v61h661v-61h-168v-576h451v576h-168v61h682v-61h-170v-1246h170v-61h-682v61h168v609h-451v-609h170v-61z" />
    <glyph glyph-name="I" unicode="I" horiz-adv-x="796" 
d="M733 0h-667v61h151v1246h-151v61h667v-61h-172v-1246h172v-61z" />
    <glyph glyph-name="J" unicode="J" horiz-adv-x="909" 
d="M698 1307v-1047q0 -222 -136 -357.5t-355 -135.5q-103 0 -178.5 61.5t-75.5 163.5q0 69 40.5 110t108.5 41q59 0 100.5 -40.5t41.5 -100.5q0 -79 -51 -139q20 -23 67 -23q21 0 31.5 2.5t23.5 16t18.5 39.5t11 74.5t7.5 120.5t2 177v1037h-159v61h653v-61h-150z" />
    <glyph glyph-name="K" unicode="K" horiz-adv-x="1593" 
d="M934 1307v61h498v-61h-150q-41 0 -68 -31l-356 -371l574 -844h147v-61h-721v61h166l-389 578q-35 55 -35 82q0 12 7 25t14 20.5t21.5 20.5t19.5 18l417 432q35 35 35 43q0 27 -80 27h-100zM750 0h-674v61h157v1246h-153v61h674v-61h-176v-1246h172v-61z" />
    <glyph glyph-name="L" unicode="L" horiz-adv-x="1251" 
d="M1182 0h-1131v61h139v1246h-139v61h668v-61h-184v-1246h229q67 0 122.5 22.5t93 57t70.5 89t53 103.5t42 116h57z" />
    <glyph glyph-name="M" unicode="M" horiz-adv-x="1705" 
d="M1491 1307v-1246h170v-61h-682v61h182v1235h-4l-399 -1296h-74l-391 1300h-4v-1116q0 -26 3.5 -46t11 -33t18 -22t24.5 -13.5t30.5 -6.5t36 -2h41.5h27v-61h-436v61q93 0 114 5q52 11 63 66q5 22 5 52v1123h-182v61h576l237 -825l248 825h555v-61h-170z" />
    <glyph glyph-name="N" unicode="N" horiz-adv-x="1478" 
d="M1239 1247v-1278h-47l-877 1219v-1051q0 -70 80 -76h117v-61h-451v61h99q48 3 60.5 28t12.5 79v1012q0 13 0.5 34t0.5 28.5t-1.5 21t-5.5 18t-11 11.5t-19 8.5t-28.5 3.5t-39.5 2h-68v61h541l576 -811v690q0 28 -45 44t-91 16h-57v61h432v-61h-86q-92 0 -92 -60z" />
    <glyph glyph-name="O" unicode="O" horiz-adv-x="1593" 
d="M502 883v-344q0 -72 0.5 -118t3 -98t7 -82t12.5 -64t19 -52t28 -37.5t37.5 -28t49 -16t61.5 -10t77 -2.5q73 0 120 6.5t82 32t52.5 54.5t28 95.5t12.5 132.5t2 187v344q0 188 -28.5 285t-89.5 133t-179 36t-178.5 -36t-88.5 -133t-28 -285zM797 1399q83 0 176 -27.5
t187 -86t169 -139t122.5 -197.5t47.5 -251q0 -199 -91 -366t-252.5 -265t-358.5 -98q-147 0 -277.5 57.5t-223 155.5t-146.5 232.5t-54 283.5q0 134 47.5 251t123 197.5t169 139t186.5 86t175 27.5z" />
    <glyph glyph-name="P" unicode="P" horiz-adv-x="1366" 
d="M575 1307v-613h142q130 0 180.5 48.5t50.5 154.5v221q0 61 -12 98t-42 57t-70 27t-107 7h-142zM760 0h-682v61h153v1246h-149v61h758q126 0 223.5 -31.5t153.5 -83.5t84 -111.5t28 -123.5q0 -68 -22.5 -125t-59.5 -96t-90 -69t-108 -47.5t-119.5 -28.5t-119.5 -15
t-112 -4h-123v-572h185v-61z" />
    <glyph glyph-name="Q" unicode="Q" horiz-adv-x="1593" 
d="M502 883v-344q0 -72 0.5 -118t3 -98t7 -82t12.5 -64t19 -52t28 -37.5t37.5 -28t49 -16t61.5 -10t77 -2.5q73 0 120 6.5t82 32t52.5 54.5t28 95.5t12.5 132.5t2 187v344q0 188 -28.5 285t-89.5 133t-179 36t-178.5 -36t-88.5 -133t-28 -285zM989 -4l-8 -131
q-6 -105 50.5 -170.5t170.5 -65.5h172v-51q-73 -18 -180 -18q-145 0 -251.5 17t-166 42t-96.5 65.5t-49 76t-17 83.5l-16 154q-224 66 -363 259t-139 441q0 134 47.5 251t123 197.5t169 139t186.5 86t175 27.5q83 0 176 -27.5t187 -86t169 -139t122.5 -197.5t47.5 -251
q0 -251 -141 -444t-369 -258z" />
    <glyph glyph-name="R" unicode="R" horiz-adv-x="1478" 
d="M575 1307v-543h87q157 0 211.5 36t54.5 142v199q0 11 1 31t0.5 29.5t-2 25.5t-6.5 24t-14.5 19t-25 16t-37 11t-52 8t-69.5 2h-148zM745 0h-673v61h159v1246h-163v61h813q64 0 122.5 -11t113 -37t95 -63.5t64.5 -94t24 -126.5q0 -64 -31.5 -116.5t-78.5 -84.5t-112 -56
t-120 -35t-114 -17v-4q212 -39 307.5 -126.5t95.5 -236.5q0 -130 8 -190.5t29 -83.5q36 -36 158 -8l12 -43q-51 -27 -118.5 -45.5t-121.5 -18.5q-186 0 -260.5 95t-79.5 333q-2 125 -21 187t-61.5 86t-127.5 24h-89v-635h170v-61z" />
    <glyph glyph-name="S" unicode="S" horiz-adv-x="1138" 
d="M811 1309l76 59h63v-362h-65q-24 132 -125 231.5t-230 99.5q-44 0 -90 -12.5t-87 -36.5t-67 -63.5t-26 -87.5q0 -44 14 -75t42.5 -50.5t57 -30t72.5 -20.5q264 -58 371 -105q223 -96 223 -399q0 -93 -28.5 -178t-85 -155.5t-151 -112.5t-214.5 -42q-156 0 -282 97
l-105 -78h-74v397h74q21 -73 56.5 -135t84.5 -112t115 -78.5t141 -28.5q82 0 146.5 24.5t102.5 64.5t57.5 87.5t19.5 97.5q0 37 -10.5 66t-34.5 50.5t-47.5 36.5t-65.5 28.5t-71.5 21t-83 19.5t-82.5 20q-69 18 -119 36t-106 52.5t-91 79t-58.5 115t-23.5 159.5
q0 114 59 208.5t158 148t214 53.5q128 0 276 -90z" />
    <glyph glyph-name="T" unicode="T" horiz-adv-x="1366" 
d="M41 924l20 444h1246l20 -444h-55q-16 60 -29.5 101t-33.5 86.5t-41 74.5t-51.5 56.5t-67 41.5t-85.5 20.5t-108 2.5v-1246h168v-61h-680v61h168v1246q-59 4 -108 -2.5t-85.5 -20.5t-67 -41.5t-51.5 -56.5t-41 -74.5t-33.5 -86.5t-29.5 -101h-55z" />
    <glyph glyph-name="U" unicode="U" horiz-adv-x="1478" 
d="M53 1307v61h678v-61h-172v-992q0 -75 11.5 -124t41.5 -87t85 -55t141 -18q195 -2 295 135q22 24 33 89t12.5 121t1.5 167v688q0 32 -25 54t-68 22h-92v61h432v-61h-122q-64 0 -64 -76v-842q0 -96 -15.5 -166t-64.5 -123q-60 -66 -160 -98.5t-268 -32.5q-261 0 -389.5 104
t-128.5 345v889h-162z" />
    <glyph glyph-name="V" unicode="V" horiz-adv-x="1366" 
d="M14 1307v61h635v-61h-157l342 -842l276 797q1 5 1.5 11t-7 12t-19 11t-35.5 8t-57 3h-69v61h428v-61h-84q-28 0 -44 -12t-40.5 -63t-63.5 -161l-383 -1102h-63l-543 1338h-117z" />
    <glyph glyph-name="W" unicode="W" horiz-adv-x="1933" 
d="M999 1307l125 -301l123 301h-248zM18 1307v61h1416v-61h-74q-32 0 -49.5 -23.5t-53.5 -112.5l-96 -241l213 -527l289 789q19 50 1 82.5t-67 32.5h-79v61h395v-61h-78q-37 0 -60 -24.5t-55 -111.5l-434 -1202h-53l-250 584l-256 -584h-59l-535 1338h-115zM465 1307
l375 -924l110 252l-270 672h-215z" />
    <glyph glyph-name="X" unicode="X" horiz-adv-x="1366" 
d="M467 0h-465v61h111q17 0 39 7.5t30 19.5l359 512l-424 707h-121v61h655v-61h-141l240 -404l231 346q20 29 -2.5 43.5t-67.5 14.5h-94v61h457v-61q-10 0 -52.5 2t-64 1t-51 -12.5t-45.5 -35.5l-281 -416l408 -676q2 -3 10.5 -18.5t16.5 -29t18 -28.5t19.5 -24t15.5 -9h102
v-61h-659v61h149l-289 478l-274 -416q-20 -30 7 -46t54 -16h109v-61z" />
    <glyph glyph-name="Y" unicode="Y" horiz-adv-x="1366" 
d="M12 1307v61h654v-61h-154l328 -555l260 501q12 23 -6.5 38.5t-51.5 15.5h-120v61h432v-61h-76q-45 0 -70 -20t-63 -93l-271 -526v-607h181v-61h-697v61h172v555l-393 691h-125z" />
    <glyph glyph-name="Z" unicode="Z" horiz-adv-x="1138" 
d="M1040 463h60v-463h-1063v80l688 1227h-184q-306 0 -373 -314h-59l18 375h977v-61l-692 -1246h290q60 0 111 26t85.5 65t63.5 96.5t45.5 106t32.5 108.5z" />
    <glyph glyph-name="bracketleft" unicode="[" horiz-adv-x="681" 
d="M578 -451h-472v1850h472v-62h-281v-1726h281v-62z" />
    <glyph glyph-name="backslash" unicode="\" horiz-adv-x="1105" 
d="M735 0l-545 1399h181l544 -1399h-180z" />
    <glyph glyph-name="bracketright" unicode="]" horiz-adv-x="681" 
d="M575 -451h-471v62h281v1726h-281v62h471v-1850z" />
    <glyph glyph-name="asciicircum" unicode="^" 
d="M152 395h-162l440 967h158l446 -967h-164l-362 793z" />
    <glyph glyph-name="underscore" unicode="_" 
d="M1024 -154v-102h-1024v102h1024z" />
    <glyph glyph-name="grave" unicode="`" horiz-adv-x="681" 
d="M381 1020l-281 180q-29 19 -42 29t-27.5 32t-14.5 48q0 37 26.5 63.5t63.5 26.5q26 0 49.5 -8.5t46 -28t36 -33.5t37.5 -43t32 -39l199 -227h-125z" />
    <glyph glyph-name="a" unicode="a" 
d="M612 205v209q-42 -2 -70.5 -5.5t-68 -14t-63 -27t-41 -47t-17.5 -72.5q0 -60 31 -111t88 -51q66 0 103.5 36.5t37.5 82.5zM612 463v137q0 85 -7 108q-16 51 -91 60q-20 2 -45 2q-29 0 -69 -12.5t-40 -36.5q0 -9 21 -43q20 -32 20 -51q0 -67 -33.5 -105.5t-97.5 -38.5
q-56 0 -93.5 33.5t-37.5 89.5q0 57 36 101.5t91.5 68.5t112 35.5t108.5 11.5q94 0 169.5 -12.5t119 -33t66 -43.5t22.5 -46v-498q0 -20 1.5 -33.5t7 -29t18.5 -23.5t33 -8q11 0 28 9.5t23 19.5l37 -39q-41 -64 -90 -90.5t-123 -26.5q-62 0 -114.5 44t-68.5 98
q-56 -65 -130.5 -103.5t-155.5 -38.5q-92 0 -166 51t-74 140q0 69 37.5 123t93.5 86.5t129.5 54t137 30t124.5 9.5z" />
    <glyph glyph-name="b" unicode="b" horiz-adv-x="1138" 
d="M182 57v1264h-114v57h114q55 0 157.5 10t125.5 11v-723q94 147 248 147q103 0 193 -59t141 -153.5t51 -198.5q0 -108 -47.5 -209t-137.5 -167.5t-200 -66.5q-160 0 -244 162h-4v-131h-402v57h119zM776 178v500q0 40 -30 66t-72 26q-74 0 -141.5 -74.5t-67.5 -130.5v-317
q0 -72 66.5 -148.5t144.5 -76.5q34 0 55.5 12t30.5 37t11.5 47t2.5 59z" />
    <glyph glyph-name="c" unicode="c" 
d="M879 258l45 -25q-42 -120 -139 -192t-222 -72q-113 0 -218.5 53.5t-174 151t-68.5 213.5q0 122 66.5 223.5t173 157t227.5 55.5q80 0 145 -23.5t102 -58.5t57 -72t20 -69q0 -64 -40.5 -102.5t-102.5 -38.5q-58 0 -97 41t-39 100q0 21 11.5 46t23.5 34q27 18 27 45
q0 45 -109 45q-38 0 -62.5 -7t-46.5 -29t-32 -67t-10 -116v-264q0 -160 30 -212t127 -52q114 0 185.5 60t120.5 175z" />
    <glyph glyph-name="d" unicode="d" horiz-adv-x="1138" 
d="M682 0v117q-109 -148 -264 -148q-100 0 -188.5 59.5t-139.5 153t-51 193.5q0 91 28.5 168t73 127t100 86t107.5 51.5t98 15.5q73 0 137 -39t95 -102h4v639h-160v57h160q55 0 157.5 10t125.5 11v-1342h116v-57h-399zM682 272v248q0 99 -62.5 174.5t-146.5 75.5
q-50 0 -83.5 -25t-33.5 -73v-539q0 -48 25 -79t72 -31q94 0 161.5 76.5t67.5 172.5z" />
    <glyph glyph-name="e" unicode="e" 
d="M852 430h-449v-264q0 -77 41.5 -110t124.5 -33q124 0 213 61t123 178l47 -16q-38 -138 -143.5 -207.5t-253.5 -69.5q-97 0 -183 27t-153.5 78.5t-107 133.5t-39.5 183t42 184.5t110.5 136.5t153 82t173.5 29q102 0 192.5 -43t147.5 -125.5t57 -185.5q0 -12 -5.5 -20
t-12 -12t-18.5 -6t-20 -2t-22 0.5t-18 0.5zM403 483h269v201q0 86 -144 86q-63 0 -94 -25.5t-31 -68.5v-193z" />
    <glyph glyph-name="f" unicode="f" horiz-adv-x="681" 
d="M442 1137v-326h176v-57h-176v-697h148v-57h-555v57h125v697h-140v57h140v117q0 97 27 177.5t71 134t100.5 90t114 53t113.5 16.5q116 0 177.5 -50t61.5 -120q0 -67 -35.5 -105.5t-99.5 -38.5q-48 0 -83.5 32t-35.5 81q0 45 25 74q2 2 8.5 8t9 9t5 9t2.5 13q0 16 -19 23
t-39 7q-33 0 -56.5 -13.5t-36 -32t-19 -48.5t-8 -53.5t-1.5 -56.5z" />
    <glyph glyph-name="g" unicode="g" 
d="M776 -86h-551v-2q-34 -77 -27.5 -135t45.5 -96.5t95.5 -58t122.5 -19.5q43 0 87 5t92.5 16t90.5 31t76.5 47.5t54 68.5t19.5 90q0 19 -10 30.5t-29 16t-32 5.5t-34 1zM369 666v-271q0 -61 123 -61q40 0 72 15t32 46v271q0 61 -26.5 82.5t-82.5 21.5q-66 0 -92 -21
t-26 -83zM236 176h540q99 0 143 -65.5t44 -169.5q0 -101 -45.5 -179t-120.5 -123t-163 -67.5t-183 -22.5q-39 0 -88.5 7t-106.5 23.5t-103 40t-77 61.5t-31 83q0 102 131 162q-59 32 -95 84.5t-36 116.5q0 90 50 140t143 75q-140 77 -140 207q0 34 16 71.5t48.5 73.5
t77.5 65t108.5 46.5t134.5 17.5q165 0 295 -92q6 7 20.5 27t21.5 28.5t21.5 23t26 21t28.5 12t36 5.5q36 0 62 -30t26 -66q0 -99 -80 -99q-51 0 -98 58l-19 -17q58 -69 58 -143q0 -61 -27.5 -109t-70.5 -77t-100 -47.5t-110.5 -25.5t-107.5 -7q-135 0 -193 14q-35 8 -87 -18
t-52 -64q0 -41 103 -41z" />
    <glyph glyph-name="h" unicode="h" horiz-adv-x="1138" 
d="M1001 57h127v-57h-516v57h107v607q0 33 -27.5 51t-62.5 18q-73 0 -141 -92t-68 -211v-373h117v-57h-512v57h112v1264h-127v57h127q55 0 157.5 10t125.5 11v-791h4q58 107 138 161t198 54q129 0 185 -60.5t56 -187.5v-518z" />
    <glyph glyph-name="i" unicode="i" horiz-adv-x="569" 
d="M152 57v697h-142v57h142q47 0 141 4t141 4v-762h125v-57h-541v57h134zM287 1290q57 0 101 -43.5t44 -101.5q0 -59 -43.5 -103.5t-101.5 -44.5q-59 0 -103.5 44.5t-44.5 103.5q0 58 45 101.5t103 43.5z" />
    <glyph glyph-name="j" unicode="j" horiz-adv-x="645" 
d="M496 819v-637q0 -181 -33 -299t-117 -209q-105 -114 -258 -114q-76 0 -132 39t-56 108q0 45 33 78t79 33q40 0 73.5 -23.5t33.5 -60.5q0 -17 -4 -41q-8 -30 -3.5 -48.5t33.5 -23.5q17 -3 30 3.5t20 23t12 33.5t6 41.5t1 40.5t-0.5 37.5t-0.5 25.5v928h-141v57h141
q47 0 141 4t142 4zM346 1294q57 0 101.5 -43.5t44.5 -101.5q0 -59 -44 -103.5t-102 -44.5t-102.5 44.5t-44.5 103.5q0 58 44.5 101.5t102.5 43.5z" />
    <glyph glyph-name="k" unicode="k" horiz-adv-x="1138" 
d="M578 754v57h434v-57h-146l-221 -195l404 -502h79v-57h-528v57h107l-275 351v41l344 305h-198zM121 1321h-109v57h109q55 0 157 9.5t125 11.5v-1342h136v-57h-523v57h105v1264z" />
    <glyph glyph-name="l" unicode="l" horiz-adv-x="569" 
d="M135 57v1264h-143v57h143q55 0 157.5 10t125.5 11v-1342h133v-57h-539v57h123z" />
    <glyph glyph-name="m" unicode="m" horiz-adv-x="1705" 
d="M426 819v-196q53 90 131 145t174 55q97 0 166 -49t86 -143q60 87 147 139.5t187 52.5q41 0 81 -9.5t75.5 -28t57 -52t21.5 -76.5v-600h134v-57h-515v57h107v570q0 34 -4 55t-22.5 39t-53.5 18q-56 0 -106 -44t-76.5 -104t-26.5 -114v-420h107v-57h-488v57h107v508
q0 104 -17 139t-73 35q-26 0 -59 -17.5t-65 -49t-53.5 -85.5t-21.5 -118v-412h106v-57h-493v57h113v697h-132v57h132q46 0 137 4t137 4z" />
    <glyph glyph-name="n" unicode="n" horiz-adv-x="1138" 
d="M432 819v-188q63 108 143.5 150t192.5 42q51 0 89.5 -8.5t72 -29t51.5 -60.5t18 -98v-570h127v-57h-512v57h111v523q0 93 -21 126t-67 33q-62 0 -110.5 -47.5t-71.5 -110t-23 -122.5v-402h109v-57h-514v57h131v697h-131v57h131q46 0 137 4t137 4z" />
    <glyph glyph-name="o" unicode="o" horiz-adv-x="1138" 
d="M729 174v436q0 96 -30 128t-130 32q-94 0 -126.5 -33t-32.5 -127v-436q0 -85 40 -118t119 -33t119.5 33.5t40.5 117.5zM569 823q125 0 236 -51.5t183.5 -152.5t72.5 -230q0 -128 -68.5 -225t-179 -146t-244.5 -49q-107 0 -200 34t-156 91.5t-99 134t-36 160.5
q0 129 72 230t183 152.5t236 51.5z" />
    <glyph glyph-name="p" unicode="p" horiz-adv-x="1138" 
d="M467 119v-502h172v-57h-559v57h104v1137h-141v57h141q47 0 141.5 4t141.5 4v-180h4q51 96 107 140t153 44q85 0 157 -36.5t120 -96.5t75 -137.5t27 -159.5q0 -106 -48 -203t-136.5 -159t-196.5 -62q-77 0 -147.5 41.5t-108.5 108.5h-6zM467 498v-234q0 -43 30 -99
t84.5 -99t112.5 -43q97 0 97 102v508q0 137 -103 137q-54 0 -107 -50t-83.5 -113t-30.5 -109z" />
    <glyph glyph-name="q" unicode="q" horiz-adv-x="1138" 
d="M958 754v-1137h115v-57h-545v57h148v506q-98 -154 -268 -154q-103 0 -191 59t-137 153t-49 196q0 85 29 165.5t79 143.5t126 100.5t163 36.5q80 -1 136.5 -38t111.5 -109v143q47 0 141 -4t141 -4h129v-57h-129zM350 633v-508q0 -21 3 -35.5t12 -31.5t30 -26t54 -9
q57 0 111.5 42t85 98t30.5 101v234q0 98 -71 185t-154 87q-44 0 -72.5 -33t-28.5 -104z" />
    <glyph glyph-name="r" unicode="r" horiz-adv-x="909" 
d="M449 819v-215h4q31 97 94 158t158 61q77 0 123 -46t46 -124q0 -61 -41.5 -102t-103.5 -41q-55 0 -92 33.5t-37 89.5q0 11 1 20.5t4 19.5t5 15t7.5 18t7.5 19q3 8 -9 10q-31 5 -78 -58q-19 -26 -38 -61q-31 -58 -41 -94.5t-10 -95.5v-369h153v-57h-541v57h105v697h-109v57
h109q47 0 141.5 4t141.5 4z" />
    <glyph glyph-name="s" unicode="s" horiz-adv-x="796" 
d="M184 43l-57 -43h-51v289h53q21 -111 105 -188.5t194 -77.5q64 0 128.5 38t64.5 101q0 19 -4.5 34t-11.5 25t-19.5 17.5t-23 11.5t-28 7t-29 4t-31.5 2.5t-30 2.5q-65 6 -109.5 14t-99 27.5t-88 48t-56.5 78t-23 115.5q0 127 82.5 200.5t209.5 73.5q35 0 63.5 -5.5
t66.5 -18t59 -17.5q11 -3 28.5 11t30.5 30h41v-235h-57q-34 98 -84 140t-148 42q-27 0 -56.5 -5.5t-60.5 -17t-51 -34.5t-20 -54q0 -33 49.5 -57t118.5 -29q93 -6 158.5 -21.5t120.5 -46t82.5 -84t27.5 -130.5q0 -63 -18.5 -119.5t-54 -102.5t-95 -73t-135.5 -27
q-127 0 -242 74z" />
    <glyph glyph-name="t" unicode="t" horiz-adv-x="681" 
d="M160 795v243h121q31 0 90 10t71 11v-264h156v-58h-156v-555q0 -4 -0.5 -18.5t0 -20.5t1.5 -18.5t4.5 -19t9 -14t14.5 -10.5t21 -3q29 0 48.5 10t30.5 31t16 39t11 49l59 -12q-25 -120 -102.5 -173t-204.5 -53q-40 0 -70.5 5.5t-50.5 13t-33.5 23t-20.5 27.5t-10.5 35.5
t-4 37.5t-0.5 43v583h-125v58h125z" />
    <glyph glyph-name="u" unicode="u" horiz-adv-x="1138" 
d="M713 -20v176h-4q-35 -94 -120 -140.5t-194 -46.5q-53 0 -92 8t-65.5 18t-44 34.5t-27 43t-14 59t-5 66t-0.5 80.5v9v467h-141v57h141q48 0 142 4t141 4v-571v-30v-47t2 -38.5t7 -34.5t14 -23.5t24 -17t35 -4.5q53 0 102 43.5t74 94.5t25 85v478h-142v57h142q47 0 141 4
t141 4v-762h138v-57h-138q-63 0 -141 -10q-117 -10 -141 -10z" />
    <glyph glyph-name="v" unicode="v" 
d="M31 811h495v-57h-114l211 -484l172 426q6 14 8 24t-1.5 16.5t-5.5 10t-12 5t-12.5 2.5t-16.5 0h-14h-84v57h334v-57h-71q-37 0 -56 -43l-313 -742h-53l-379 785h-88v57z" />
    <glyph glyph-name="w" unicode="w" horiz-adv-x="1366" 
d="M16 754v57h498v-57h-102l151 -422h4l203 479h59l207 -483h4l129 377q7 23 -9.5 36t-39.5 13h-78v57h310v-57h-76q-13 0 -22 -6.5t-12 -13.5t-6.5 -18.5t-4.5 -13.5l-264 -733h-43l-234 510h-2l-211 -510h-47l-309 785h-105z" />
    <glyph glyph-name="x" unicode="x" horiz-adv-x="1138" 
d="M412 0h-361v57h96q21 0 45 15t38 29t39 43.5t30 35.5l150 166l-316 408h-94v57h534v-57h-108l164 -217l194 217h-139v57h340v-57h-115l-245 -262l319 -402q11 -13 23 -21t26.5 -10.5t24 -3t24.5 0.5t19 1v-57h-537v57h111l-191 242l-188 -207q-23 -26 33 -33q21 -2 84 -2
v-57z" />
    <glyph glyph-name="y" unicode="y" 
d="M35 754v57h493v-57h-96l199 -443h8l156 381q12 31 -6 46.5t-46 15.5h-75v57h323v-57h-63q-12 0 -22.5 -5.5t-19.5 -20.5t-13.5 -22t-13 -29.5t-9.5 -23.5l-406 -942q-71 -162 -200 -162q-51 0 -91 39t-40 88q0 55 33 89t85 34q49 0 84 -39q11 -12 16 -16.5t16 -10t18 0.5
q12 5 21 11.5t16 18.5l10.5 18t10 22.5t7.5 19.5l74 174l-379 756h-90z" />
    <glyph glyph-name="z" unicode="z" horiz-adv-x="909" 
d="M834 0h-766v41l458 713h-120q-91 0 -147 -58.5t-103 -203.5h-54l11 319h729v-51l-447 -703h142q28 0 53 8t44 19.5t38 32t31 37.5t26.5 46t22.5 47t21.5 49.5l19.5 45.5h51z" />
    <glyph glyph-name="braceleft" unicode="{" horiz-adv-x="573" 
d="M377 201v-402q0 -106 29.5 -161.5t109.5 -83.5v-5q-9 0 -36.5 -0.5t-37.5 0t-33 1.5t-36 4.5t-32 9.5t-35.5 15t-33.5 22q-46 40 -59.5 96.5t-13.5 142.5v398q0 47 -1 64.5t-9 45.5t-27 53q-37 60 -105 76v4q87 24 114.5 74.5t27.5 161.5v356q0 54 2 90t15 84t38 76
q30 36 77 54t79 20t90 2h16v-6q-77 -27 -108 -84t-31 -160v-373q0 -65 -5.5 -108.5t-21 -84t-47 -65.5t-80.5 -37v-4q91 -25 122.5 -90t31.5 -186z" />
    <glyph glyph-name="bar" unicode="|" horiz-adv-x="1146" 
d="M492 -512v2048h165v-2048h-165z" />
    <glyph glyph-name="braceright" unicode="}" horiz-adv-x="573" 
d="M197 -201v402q0 121 31 186t122 90v4q-49 12 -80.5 37t-47 65.5t-20.5 84t-5 108.5v373q0 103 -31.5 160t-108.5 84v6h16q58 0 90 -2t79 -20t77 -54q56 -64 56 -250v-356q0 -111 27 -161.5t114 -74.5v-4q-66 -16 -104 -76q-19 -25 -27 -53t-9 -45.5t-1 -64.5v-398
q0 -85 -14 -142t-60 -97q-17 -13 -33.5 -22t-35.5 -15t-32 -9.5t-36 -4.5t-33 -1.5t-37.5 0t-36.5 0.5v5q80 28 110 84t30 161z" />
    <glyph glyph-name="asciitilde" unicode="~" 
d="M893 616l129 -81q-27 -38 -38 -53t-37.5 -47t-45 -46.5t-46.5 -33t-58.5 -26t-65.5 -7.5q-66 0 -180 43l-86 32q-4 2 -24 9.5l-28 10.5t-25.5 9t-28.5 8.5t-25.5 5t-26.5 2.5q-19 0 -36 -4t-32.5 -14.5t-25.5 -18t-24.5 -26.5t-20 -26t-21 -31t-18.5 -29l-127 84
q30 49 57 83.5t64 69t82.5 52.5t97.5 18q81 0 232 -59q11 -4 43 -16.5t45.5 -17.5t36.5 -12.5t39.5 -10.5t31.5 -3q16 0 31 4t29 13.5t24 17.5t23 24.5t19 24.5t19 27t17 24z" />
    <glyph glyph-name="uni00A0" unicode="&#xa0;" horiz-adv-x="624" 
 />
    <glyph glyph-name="exclamdown" unicode="&#xa1;" horiz-adv-x="681" 
d="M334 940q68 0 119 -50t51 -118q0 -70 -50 -119t-120 -49q-69 0 -118.5 50t-49.5 118t50 118t118 50zM303 467h62q-2 -91 6 -274q8 -147 84 -312q41 -89 41 -145q0 -78 -40.5 -132.5t-115.5 -54.5q-84 0 -126 54t-42 133q0 56 41 145q76 165 84 312q8 183 6 274z" />
    <glyph glyph-name="cent" unicode="&#xa2;" horiz-adv-x="1251" 
d="M541 96l176 467q-9 27 1.5 66t29.5 51q9 6 18 21t8 24q-7 49 -108 49q-154 0 -154 -168v-360q0 -93 29 -150zM770 485l-164 -438q118 -35 219.5 27.5t151.5 185.5l45 -24q-50 -143 -175 -213.5t-265 -40.5l-105 -279h-82l111 299q-130 45 -217.5 150t-87.5 237
q0 121 66.5 222t173.5 156.5t227 55.5q75 0 139 -20l92 241h82l-104 -276q114 -75 114 -168q0 -86 -74.5 -125t-146.5 10z" />
    <glyph glyph-name="sterling" unicode="&#xa3;" horiz-adv-x="1251" 
d="M291 268q-55 0 -90 -34t-35 -89q0 -58 34.5 -88t94.5 -30q56 0 108 31t82 79q-36 66 -81 98.5t-113 32.5zM332 666h-195v102h174q-12 74 -12 147q0 91 27.5 166.5t73.5 126.5t106 86.5t124 51.5t130 16q69 0 136.5 -17t127.5 -50.5t96.5 -91.5t36.5 -132
q0 -67 -42 -113.5t-107 -46.5q-63 0 -106.5 38t-43.5 102q0 51 45 104q16 19 22.5 27t13.5 22.5t7 28.5q0 24 -28 40.5t-56.5 21.5t-52.5 5q-78 0 -125 -17t-70 -57t-18 -106.5t37 -165.5q49 -153 55 -186h232v-102h-224q11 -41 11 -111q0 -148 -78 -301q86 -21 178 -21
q150 0 215 63t86 216h63q0 -262 -92 -402.5t-278 -140.5q-134 0 -264 111q-51 -51 -117 -81t-135 -30q-93 0 -153 43.5t-60 132.5q0 82 63.5 137.5t145.5 55.5q52 0 129 -29t82 -30q0 91 -97 274q-11 22 -33 60.5z" />
    <glyph glyph-name="currency" unicode="&#xa4;" horiz-adv-x="1251" 
d="M188 313l74 76q-80 121 -80 254q0 145 80 260l-74 74l103 106l76 -75q112 82 266 82q131 0 252 -82l76 75l104 -106l-76 -74q80 -121 80 -268q0 -124 -80 -246l76 -76l-104 -104l-76 76q-119 -84 -267 -84q-131 0 -251 84l-76 -76zM633 907q-115 0 -191.5 -75.5
t-76.5 -190.5q0 -108 78.5 -181t187.5 -73q105 0 179.5 78t74.5 182t-74.5 182t-177.5 78z" />
    <glyph glyph-name="yen" unicode="&#xa5;" horiz-adv-x="1251" 
d="M463 1300l295 -552l235 499q10 23 -6.5 38t-46.5 15h-109v62h392v-62h-70q-41 0 -63 -19.5t-56 -92.5l-246 -522v-97h250v-90h-250v-90h250v-90h-250v-238h164v-61h-628v61h155v238h-248v90h248v90h-248v90h248v45l-354 686h-115v62h590v-62h-137z" />
    <glyph glyph-name="brokenbar" unicode="&#xa6;" horiz-adv-x="1146" 
d="M492 -358v716h165v-716h-165zM492 666v716h165v-716h-165z" />
    <glyph glyph-name="section" unicode="&#xa7;" 
d="M510 1399q60 0 123 -21t111.5 -68t48.5 -108q0 -53 -32 -91t-85 -38q-46 0 -80.5 33t-34.5 78q0 16 8 32.5t17 26t26 25t23 22.5q5 3 5.5 12.5t-3.5 18.5q-12 20 -44.5 30.5t-64.5 10.5q-75 0 -126.5 -40t-51.5 -112q0 -21 5 -39.5t22.5 -41.5t36.5 -42.5t60.5 -53.5
t80 -63.5t109.5 -82.5q118 -89 175.5 -189.5t57.5 -177.5q0 -114 -67 -179t-181 -62v-21q166 -124 166 -276q0 -90 -48.5 -152.5t-121 -89.5t-160.5 -27q-63 0 -126 20.5t-111.5 69t-48.5 113.5q0 127 127 127q43 0 75.5 -30t32.5 -74q0 -26 -13 -46.5t-28 -31t-28 -21.5
t-13 -20q0 -31 50.5 -48.5t89.5 -17.5q78 0 126 38t48 114q0 86 -88 151q-82 61 -198 158.5t-167 153.5q-44 50 -64 100.5t-20 116.5q0 120 69 187.5t187 57.5v21q-44 39 -68.5 63.5t-51.5 61t-38.5 77t-11.5 89.5q0 68 28 119.5t73.5 80t94.5 42.5t99 14zM381 793
q-53 0 -88 -38t-35 -91q0 -20 6.5 -40t22 -42t26.5 -37t36.5 -38.5t35 -31.5l38 -32t30.5 -25q120 -101 184 -101q55 0 91 38.5t36 93.5q0 25 -9 48t-31 49.5t-32 36.5t-39 38q-37 34 -59 53.5t-64 52.5t-79.5 49.5t-69.5 16.5z" />
    <glyph glyph-name="dieresis" unicode="&#xa8;" horiz-adv-x="681" 
d="M555 1061q-52 0 -89.5 40.5t-37.5 92.5q0 53 37.5 93t89.5 40q54 0 93.5 -39t39.5 -94q0 -56 -39 -94.5t-94 -38.5zM123 1061q-52 0 -89.5 40.5t-37.5 92.5q0 53 37.5 93t89.5 40q54 0 93.5 -39t39.5 -94q0 -56 -39 -94.5t-94 -38.5z" />
    <glyph glyph-name="copyright" unicode="&#xa9;" horiz-adv-x="1556" 
d="M772 -31q-188 0 -348.5 97.5t-254 262.5t-93.5 357q0 144 55 276t148 227.5t222.5 152.5t272.5 57q145 0 276 -55.5t226 -150t151 -227t56 -280.5t-57 -281.5t-152.5 -228.5t-226.5 -151t-275 -56zM774 1276q-154 0 -287 -80.5t-210.5 -216t-77.5 -291.5
q0 -122 46.5 -232.5t125 -190t186.5 -126.5t227 -47q155 0 288.5 81.5t210.5 218.5t77 296q0 160 -78.5 295.5t-213.5 214t-294 78.5zM967 1012l39 37h38v-195h-34q-36 85 -87 132.5t-141 47.5q-37 0 -58.5 -6t-40 -24t-27.5 -55t-14 -94.5t-5 -147.5q0 -217 22 -278.5
t125 -61.5q171 0 238 188h41v-207h-45l-41 37q-97 -53 -186 -53q-158 0 -269.5 108.5t-111.5 266.5q0 39 17.5 86.5t51.5 95t78 87.5t102 64.5t119 24.5q109 0 189 -53z" />
    <glyph glyph-name="ordfeminine" unicode="&#xaa;" horiz-adv-x="614" 
d="M348 1028v125q-36 -2 -58.5 -5.5t-52 -12.5t-44.5 -29.5t-15 -50.5q0 -37 20.5 -68t57.5 -31q43 0 67.5 22t24.5 50zM348 1184v82v7q0 28 -1.5 40.5t-10 28t-28.5 21t-54 5.5q-18 0 -44 -8t-26 -23q0 -7 13 -24q14 -17 14 -31q0 -40 -22 -63t-64 -23q-36 0 -60 20t-24 54
t23 60.5t59 40.5t72.5 21t70.5 7q81 0 139 -13t82.5 -30.5t24.5 -36.5v-299q0 -14 0.5 -21t4 -17t12 -14.5t22.5 -4.5q7 0 18 5.5t15 12.5l22 -25q-26 -38 -57.5 -53.5t-79.5 -15.5q-40 0 -74 26t-45 58q-81 -84 -186 -84q-60 0 -108 30.5t-48 83.5q0 50 35 87.5t91.5 56.5
t109 28t104.5 11z" />
    <glyph glyph-name="guillemotleft" unicode="&#xab;" 
d="M485 408v14q233 195 346 301q12 7 22.5 1.5t10.5 -19.5q0 -19 -196 -293q45 -52 123.5 -162t78.5 -137q0 -8 -9.5 -12t-18.5 3q-84 76 -357 304zM154 408v14q233 195 346 301q12 7 22 2t10 -20q0 -19 -196 -293q45 -53 124 -162.5t79 -136.5q0 -8 -10 -12t-19 3
q-96 87 -356 304z" />
    <glyph glyph-name="logicalnot" unicode="&#xac;" 
d="M803 127v385h-744v166h908v-551h-164z" />
    <glyph glyph-name="uni00AD" unicode="&#xad;" horiz-adv-x="681" 
d="M633 307h-584v209h584v-209z" />
    <glyph glyph-name="registered" unicode="&#xae;" horiz-adv-x="1556" 
d="M772 -31q-188 0 -348.5 97.5t-254 262.5t-93.5 357q0 144 55 276t148 227.5t222.5 152.5t272.5 57q145 0 276 -55.5t226 -150t151 -227t56 -280.5t-57 -281.5t-152.5 -228.5t-226.5 -151t-275 -56zM774 1276q-154 0 -287 -80.5t-210.5 -216t-77.5 -291.5
q0 -122 46.5 -232.5t125 -190t186.5 -126.5t227 -47q155 0 288.5 81.5t210.5 218.5t77 296q0 160 -78.5 295.5t-213.5 214t-294 78.5zM795 365v-33h-375v33h90v665h-92v35h452q96 0 165 -44.5t69 -133.5q0 -43 -25.5 -75.5t-67 -50.5t-81.5 -27.5t-82 -12.5v-4
q120 -20 172.5 -66t52.5 -127q0 -124 23 -147q19 -19 88 -2l6 -25q-68 -33 -133 -33q-104 0 -146 50.5t-45 177.5q0 98 -23.5 129t-94.5 31h-50v-340h97zM698 1030v-291h47q90 0 120 19.5t30 77.5v106q0 5 0.5 18t0.5 17.5t-2 14.5t-6.5 13.5t-12.5 9.5t-20.5 8.5t-31 4.5
t-43.5 2h-82z" />
    <glyph glyph-name="macron" unicode="&#xaf;" horiz-adv-x="681" 
d="M680 1221h-678v147h678v-147z" />
    <glyph glyph-name="degree" unicode="&#xb0;" horiz-adv-x="819" 
d="M717 1055q0 -127 -90.5 -217t-216.5 -90q-128 0 -218 90t-90 217q-1 126 89.5 216.5t218.5 90.5q126 0 216.5 -90.5t90.5 -216.5zM408 1247q-78 0 -135 -57t-56 -135q0 -79 56.5 -136t136.5 -57q79 0 136 57t56 136q1 78 -56.5 135t-137.5 57z" />
    <glyph glyph-name="plusminus" unicode="&#xb1;" 
d="M59 659h371v250h166v-250h371v-165h-371v-252h-166v252h-371v165zM967 0h-908v166h908v-166z" />
    <glyph glyph-name="twosuperior" unicode="&#xb2;" horiz-adv-x="749" 
d="M686 545h-639v108q39 28 118 83.5t118 82.5q73 51 111.5 89t61.5 94.5t23 134.5q0 75 -42.5 128.5t-121.5 53.5q-57 0 -118 -33q-16 -9 -38 -28t-22 -29q0 -17 33 -17q50 0 84.5 -23t34.5 -67q0 -41 -29.5 -63.5t-75.5 -22.5q-53 0 -81.5 35t-28.5 84q0 87 84.5 147
t230.5 60q58 0 111.5 -11.5t100 -35.5t74 -67.5t27.5 -100.5q0 -61 -32.5 -108t-91.5 -95q-70 -56 -219.5 -141.5t-176.5 -102.5h424q21 0 32 12.5t12 30t1.5 37t1.5 33.5h47z" />
    <glyph glyph-name="threesuperior" unicode="&#xb3;" horiz-adv-x="749" 
d="M395 985v-4q40 -7 61.5 -11t59.5 -13t59.5 -18.5t49 -26.5t42 -36.5t25 -48t10.5 -63.5q0 -58 -35 -105t-93.5 -75t-128.5 -43t-144 -15q-110 0 -181 48.5t-71 105.5q0 45 24 73.5t72 28.5q43 0 74 -23t31 -63q0 -41 -35 -67q-5 -3 -13 -8t-12.5 -7.5t-8 -7t-3.5 -8.5
q0 -17 50.5 -27t78.5 -10q81 0 123.5 47.5t42.5 132.5q0 114 -47.5 163.5t-157.5 49.5q-15 0 -40.5 -1t-37.5 -1q-14 0 -14 17t12 20q79 6 80 6q99 9 135.5 50.5t36.5 134.5q0 84 -26.5 115.5t-98.5 31.5q-94 0 -94 -31q0 -5 4 -8t14 -8t15 -8q31 -27 31 -66
q0 -38 -26.5 -61t-68.5 -23q-36 0 -62 25t-26 59q0 71 69.5 113.5t184.5 42.5q49 0 98 -10t94.5 -30.5t74 -57.5t28.5 -86q0 -44 -23.5 -79t-65 -56.5t-80 -34.5t-87.5 -23z" />
    <glyph glyph-name="acute" unicode="&#xb4;" horiz-adv-x="681" 
d="M584 1200l-281 -180h-125l199 227q8 10 32 39t37.5 43t36 33.5t46 28t49.5 8.5q37 0 63.5 -26.5t26.5 -63.5q0 -26 -14.5 -48t-27.5 -32t-42 -29z" />
    <glyph glyph-name="mu" unicode="&#xb5;" horiz-adv-x="1138" 
d="M713 -20v176h-4q-35 -94 -120 -140.5t-194 -46.5q-20 0 -20 -35.5t12 -70.5q3 -9 11.5 -36.5t13.5 -44t10.5 -42t7.5 -47.5q5 -56 -37 -100t-104 -44t-103.5 40.5t-38.5 103.5q2 36 14.5 90.5t22.5 95.5t10 89t-18 83q-14 26 -20.5 66.5t-7.5 72.5t-1 97v467h-141v57h141
q48 0 142 4t141 4v-571v-30v-47t2 -38.5t7 -34.5t14 -23.5t24 -17t35 -4.5q53 0 102 43.5t74 94.5t25 85v478h-142v57h142q47 0 141 4t141 4v-762h138v-57h-138q-63 0 -141 -10q-117 -10 -141 -10z" />
    <glyph glyph-name="paragraph" unicode="&#xb6;" horiz-adv-x="1351" 
d="M1192 1399v-142h-127v-1542h-152v1542h-157v-1544h-152v789q-76 0 -152.5 29.5t-142 83.5t-106.5 142t-41 195q0 106 41 194t106.5 141.5t142 82.5t152.5 29h588z" />
    <glyph glyph-name="periodcentered" unicode="&#xb7;" horiz-adv-x="681" 
d="M338 623q68 0 119 -50t51 -118q0 -70 -50 -119t-120 -49q-69 0 -118.5 50t-49.5 118q0 67 50 117.5t118 50.5z" />
    <glyph glyph-name="cedilla" unicode="&#xb8;" horiz-adv-x="681" 
d="M211 -213l-21 16l86 197h86l-57 -131q29 10 72 10q79 0 128.5 -37t49.5 -114q0 -51 -28 -87t-74.5 -54t-91 -25.5t-91.5 -7.5q-37 0 -90 11t-90 25l33 76q58 -26 147 -26q37 0 64.5 23t27.5 58q0 36 -25.5 55t-62.5 19q-36 0 -63 -8z" />
    <glyph glyph-name="onesuperior" unicode="&#xb9;" horiz-adv-x="749" 
d="M637 545h-522v37h166v690q0 37 -54 37h-112v37l360 16v-780h162v-37z" />
    <glyph glyph-name="ordmasculine" unicode="&#xba;" horiz-adv-x="684" 
d="M446 1010v262q0 57 -18.5 76.5t-81.5 19.5q-64 0 -86 -20t-22 -76v-262q0 -51 26.5 -70.5t77.5 -19.5t77.5 19.5t26.5 70.5zM342 1399q127 0 223.5 -72t96.5 -188q0 -115 -93 -183.5t-227 -68.5q-139 0 -229 74t-90 178q0 116 96 188t223 72z" />
    <glyph glyph-name="guillemotright" unicode="&#xbb;" 
d="M870 422v-14q-260 -217 -356 -304q-9 -7 -19 -3t-10 12q0 27 79 136.5t124 162.5q-196 274 -196 293q0 15 10 20t22 -2q113 -106 346 -301zM539 422v-14q-273 -228 -357 -304q-9 -7 -18.5 -3t-9.5 12q0 27 78.5 137t123.5 162q-196 274 -196 293q0 14 10.5 19.5
t22.5 -1.5q113 -106 346 -301z" />
    <glyph glyph-name="onequarter" unicode="&#xbc;" horiz-adv-x="1875" 
d="M1380 817h133v-557h89q24 0 35 7.5t11.5 20.5t0 29t0.5 33h37v-213h-37v23.5t0.5 19.5t-0.5 14.5t-2.5 11.5t-6 7t-9 5.5t-14 2.5t-20 2h-26.5h-58v-186h105v-37h-426v37h117v186h-351q1 10 -0.5 20.5t-2 15.5t3 13t12.5 19zM999 260h310v404zM1499 1362l-919 -1362h-107
l920 1362h106zM713 545h-523v37h166v690q0 37 -53 37h-113v37l361 16v-780h162v-37z" />
    <glyph glyph-name="onehalf" unicode="&#xbd;" horiz-adv-x="1875" 
d="M692 545h-522v37h166v690q0 37 -53 37h-113v37l360 16v-780h162v-37zM1657 268h47l-14 -268h-639v109q39 27 117.5 82.5t117.5 82.5q109 75 153 140t44 178q0 75 -42.5 128.5t-121.5 53.5q-59 0 -119 -33q-16 -9 -37.5 -27.5t-21.5 -29.5q0 -16 33 -16q50 0 84 -23
t34 -67q0 -41 -29 -63.5t-75 -22.5q-53 0 -82 34.5t-29 83.5q0 87 84.5 147t231.5 60q58 0 111.5 -11.5t100 -35.5t74 -67.5t27.5 -100.5q0 -60 -32.5 -107.5t-92.5 -95.5q-70 -56 -218.5 -140.5t-176.5 -102.5h424q21 0 32 12.5t12 30t1.5 36.5t1.5 33zM1436 1362
l-920 -1362h-106l919 1362h107z" />
    <glyph glyph-name="threequarters" unicode="&#xbe;" horiz-adv-x="1875" 
d="M1380 817h133v-557h89q24 0 35 7.5t11.5 20.5t0 29t0.5 33h37v-213h-37v23.5t0.5 19.5t-0.5 14.5t-2.5 11.5t-6 7t-9 5.5t-14 2.5t-20 2h-26.5h-58v-186h105v-37h-426v37h117v186h-351q1 10 -0.5 20.5t-2 15.5t3 13t12.5 19zM999 260h310v404zM1516 1362l-920 -1362h-107
l920 1362h107zM537 1004v-5q40 -7 61.5 -11t59.5 -13t59.5 -18.5t49 -26.5t42 -36.5t25 -48t10.5 -63.5q0 -77 -61.5 -132.5t-150.5 -80t-190 -24.5q-110 0 -181 48t-71 105q0 45 24.5 74t72.5 29q43 0 73.5 -23t30.5 -63q0 -42 -35 -68q-5 -3 -13 -8t-12.5 -7.5t-8 -7
t-3.5 -8.5q0 -17 50.5 -26.5t79.5 -9.5q80 0 122.5 47.5t42.5 132.5q0 114 -47 163.5t-157 49.5q-15 0 -40.5 -1t-37.5 -1q-14 0 -14 17t12 20q79 6 80 6q99 9 135.5 50t36.5 134q0 84 -26.5 116t-98.5 32q-95 0 -95 -31q0 -5 4 -8.5t14.5 -8.5t14.5 -8q31 -27 31 -65
t-26 -61t-68 -23q-36 0 -62 25t-26 59q0 70 69 112.5t185 42.5q49 0 98 -10t94.5 -30.5t74 -57.5t28.5 -86q0 -36 -17 -66t-41.5 -49t-61 -35.5t-67.5 -25t-69 -16.5z" />
    <glyph glyph-name="questiondown" unicode="&#xbf;" horiz-adv-x="909" 
d="M520 492h53q4 -15 13.5 -51.5t15.5 -60t11 -54.5t5 -54q0 -79 -44.5 -149t-122.5 -148q-96 -96 -120 -127q-46 -59 -46 -104q0 -147 207 -147q52 0 112.5 21t67.5 63q1 6 -11.5 10t-34.5 15t-38 28q-37 40 -37 94q0 58 38.5 87.5t98.5 29.5q59 0 95 -39t36 -99
q0 -57 -34 -108t-85 -86q-59 -39 -107 -51.5t-124 -12.5q-154 0 -265.5 91t-111.5 241q0 49 12.5 91.5t28.5 71t51.5 62.5t59 52.5t73.5 54.5q143 105 168 129q46 42 46 86q0 23 -11 64zM514 940q68 0 119 -50t51 -118q0 -70 -50 -119t-120 -49q-69 0 -118.5 50t-49.5 118
t50 118t118 50z" />
    <glyph glyph-name="Agrave" unicode="&#xc0;" horiz-adv-x="1366" 
d="M428 0h-424v61q28 0 44.5 1t44.5 6t46.5 18.5t26.5 34.5l483 1278h80l508 -1338h123v-61h-649v61h157l-110 322h-420l-53 -147q-41 -109 -41 -140q0 -14 15.5 -23t42 -11.5t48.5 -3t49 1t29 1.5v-61zM551 946l-186 -502h368zM723 1577l-281 180q-29 19 -42 29t-27.5 32
t-14.5 48q0 37 27 63.5t64 26.5q26 0 49.5 -8.5t46 -28t36 -33.5t36.5 -43t32 -39l199 -227h-125z" />
    <glyph glyph-name="Aacute" unicode="&#xc1;" horiz-adv-x="1366" 
d="M428 0h-424v61q28 0 44.5 1t44.5 6t46.5 18.5t26.5 34.5l483 1278h80l508 -1338h123v-61h-649v61h157l-110 322h-420l-53 -147q-41 -109 -41 -140q0 -14 15.5 -23t42 -11.5t48.5 -3t49 1t29 1.5v-61zM551 946l-186 -502h368zM926 1757l-281 -180h-125l199 227q8 10 32 39
t37.5 43t36 33.5t46 28t49.5 8.5q37 0 63.5 -26.5t26.5 -63.5q0 -26 -14.5 -48t-27.5 -32t-42 -29z" />
    <glyph glyph-name="Acircumflex" unicode="&#xc2;" horiz-adv-x="1366" 
d="M428 0h-424v61q28 0 44.5 1t44.5 6t46.5 18.5t26.5 34.5l483 1278h80l508 -1338h123v-61h-649v61h157l-110 322h-420l-53 -147q-41 -109 -41 -140q0 -14 15.5 -23t42 -11.5t48.5 -3t49 1t29 1.5v-61zM551 946l-186 -502h368zM588 1925h190l252 -356l-4 -4h-115l-227 200
l-235 -200h-105l-4 4z" />
    <glyph glyph-name="Atilde" unicode="&#xc3;" horiz-adv-x="1366" 
d="M428 0h-424v61q28 0 44.5 1t44.5 6t46.5 18.5t26.5 34.5l483 1278h80l508 -1338h123v-61h-649v61h157l-110 322h-420l-53 -147q-41 -109 -41 -140q0 -14 15.5 -23t42 -11.5t48.5 -3t49 1t29 1.5v-61zM551 946l-186 -502h368zM971 1802h88q-61 -258 -248 -258
q-70 0 -174 49q-100 49 -148 49q-32 0 -59 -28.5t-33 -67.5h-86q15 107 77.5 181.5t164.5 74.5q66 0 170 -49q104 -51 141 -51q42 0 65 26t42 74z" />
    <glyph glyph-name="Adieresis" unicode="&#xc4;" horiz-adv-x="1366" 
d="M428 0h-424v61q28 0 44.5 1t44.5 6t46.5 18.5t26.5 34.5l483 1278h80l508 -1338h123v-61h-649v61h157l-110 322h-420l-53 -147q-41 -109 -41 -140q0 -14 15.5 -23t42 -11.5t48.5 -3t49 1t29 1.5v-61zM551 946l-186 -502h368zM897 1536q-52 0 -89.5 40.5t-37.5 92.5
q0 53 37.5 93t89.5 40q54 0 93.5 -39t39.5 -94t-39 -94t-94 -39zM465 1536q-52 0 -89.5 40.5t-37.5 92.5q0 53 37.5 93t89.5 40q54 0 93.5 -39t39.5 -94t-39 -94t-94 -39z" />
    <glyph glyph-name="Aring" unicode="&#xc5;" horiz-adv-x="1366" 
d="M428 0h-424v61q28 0 44.5 1t44.5 6t46.5 18.5t26.5 34.5l483 1278h80l508 -1338h123v-61h-649v61h157l-110 322h-420l-53 -147q-41 -109 -41 -140q0 -14 15.5 -23t42 -11.5t48.5 -3t49 1t29 1.5v-61zM551 946l-186 -502h368zM682 1458q-90 0 -153.5 64.5t-63.5 154.5
q0 88 64 152.5t153 64.5q90 0 154.5 -63.5t64.5 -153.5q0 -92 -64 -155.5t-155 -63.5zM682 1794q-47 0 -83 -35t-36 -82t36 -82.5t83 -35.5t84 36t37 82q0 47 -36.5 82t-84.5 35z" />
    <glyph glyph-name="AE" unicode="&#xc6;" horiz-adv-x="2048" 
d="M537 651h362v656h-45q-29 -61 -143.5 -294.5t-173.5 -361.5zM313 63h113v-63h-383v61h88q31 0 46 12t30 42l346 714q5 10 39.5 79.5t51.5 107t35.5 92.5t18.5 88q0 49 -41 80t-118 31h-66v61h1401l12 -369h-69q-65 174 -146.5 241t-234.5 67h-193v-572q76 0 123.5 11.5
t79 43t48.5 74.5t34 119h67v-582h-67q-22 151 -80 207t-205 56v-603h201q67 0 121 9.5t93.5 25t71 43.5t52 56.5t38.5 73t29.5 83.5t24.5 97h63l-12 -449h-1196v61h170v529h-397q-9 -24 -64.5 -145t-105 -230t-49.5 -121q0 -11 10 -21t20 -10z" />
    <glyph glyph-name="Ccedilla" unicode="&#xc7;" horiz-adv-x="1366" 
d="M1090 1288l69 80h70v-381h-60q-33 80 -65.5 136.5t-80 108.5t-112.5 78.5t-147 26.5q-52 0 -85.5 -7t-65 -30.5t-49 -66t-31.5 -114.5t-19.5 -174.5t-5.5 -248.5q0 -424 39.5 -544.5t224.5 -120.5q85 0 153.5 28.5t118 81.5t84 117.5t60.5 147.5h69v-406h-73l-80 76
q-159 -104 -320 -107l-45 -100q29 10 72 10q79 0 128.5 -37t49.5 -114q0 -51 -28 -87t-74 -54t-90.5 -25.5t-91.5 -7.5q-37 0 -90.5 11t-90.5 25l33 76q58 -26 148 -26q37 0 64.5 23t27.5 58q0 36 -25.5 55t-62.5 19t-64 -8l-20 16l75 172q-121 14 -229.5 76t-188.5 156
t-126.5 221.5t-46.5 267.5q0 77 31 171t90.5 187.5t137 170.5t180.5 125.5t210 48.5q193 0 332 -111z" />
    <glyph glyph-name="Egrave" unicode="&#xc8;" horiz-adv-x="1366" 
d="M1272 0h-1190v61h164v1246h-146v61h1121l12 -369h-70q-65 174 -146.5 241t-234.5 67h-192v-572q76 0 123 11.5t79 43t48.5 74.5t33.5 119h68v-582h-68q-22 152 -79.5 207.5t-204.5 55.5v-603h201q67 0 121 9.5t93.5 25t71 43.5t52 56.5t38.5 73t29.5 83.5t24.5 97h63z
M723 1577l-281 180q-29 19 -42 29t-27.5 32t-14.5 48q0 37 27 63.5t64 26.5q26 0 49.5 -8.5t46 -28t36 -33.5t36.5 -43t32 -39l199 -227h-125z" />
    <glyph glyph-name="Eacute" unicode="&#xc9;" horiz-adv-x="1366" 
d="M1272 0h-1190v61h164v1246h-146v61h1121l12 -369h-70q-65 174 -146.5 241t-234.5 67h-192v-572q76 0 123 11.5t79 43t48.5 74.5t33.5 119h68v-582h-68q-22 152 -79.5 207.5t-204.5 55.5v-603h201q67 0 121 9.5t93.5 25t71 43.5t52 56.5t38.5 73t29.5 83.5t24.5 97h63z
M926 1757l-281 -180h-125l199 227q8 10 32 39t37.5 43t36 33.5t46 28t49.5 8.5q37 0 63.5 -26.5t26.5 -63.5q0 -26 -14.5 -48t-27.5 -32t-42 -29z" />
    <glyph glyph-name="Ecircumflex" unicode="&#xca;" horiz-adv-x="1366" 
d="M1272 0h-1190v61h164v1246h-146v61h1121l12 -369h-70q-65 174 -146.5 241t-234.5 67h-192v-572q76 0 123 11.5t79 43t48.5 74.5t33.5 119h68v-582h-68q-22 152 -79.5 207.5t-204.5 55.5v-603h201q67 0 121 9.5t93.5 25t71 43.5t52 56.5t38.5 73t29.5 83.5t24.5 97h63z
M588 1925h190l252 -356l-4 -4h-115l-227 200l-235 -200h-105l-4 4z" />
    <glyph glyph-name="Edieresis" unicode="&#xcb;" horiz-adv-x="1366" 
d="M1272 0h-1190v61h164v1246h-146v61h1121l12 -369h-70q-65 174 -146.5 241t-234.5 67h-192v-572q76 0 123 11.5t79 43t48.5 74.5t33.5 119h68v-582h-68q-22 152 -79.5 207.5t-204.5 55.5v-603h201q67 0 121 9.5t93.5 25t71 43.5t52 56.5t38.5 73t29.5 83.5t24.5 97h63z
M897 1536q-52 0 -89.5 40.5t-37.5 92.5q0 53 37.5 93t89.5 40q54 0 93.5 -39t39.5 -94t-39 -94t-94 -39zM465 1536q-52 0 -89.5 40.5t-37.5 92.5q0 53 37.5 93t89.5 40q54 0 93.5 -39t39.5 -94t-39 -94t-94 -39z" />
    <glyph glyph-name="Igrave" unicode="&#xcc;" horiz-adv-x="796" 
d="M733 0h-667v61h151v1246h-151v61h667v-61h-172v-1246h172v-61zM438 1577l-280 180q-29 19 -42 29t-27.5 32t-14.5 48q0 37 26.5 63.5t63.5 26.5q26 0 49.5 -8.5t46 -28t36 -33.5t37.5 -43t32 -39l198 -227h-125z" />
    <glyph glyph-name="Iacute" unicode="&#xcd;" horiz-adv-x="796" 
d="M733 0h-667v61h151v1246h-151v61h667v-61h-172v-1246h172v-61zM641 1757l-281 -180h-124l198 227q8 10 32 39t37.5 43t36 33.5t46 28t49.5 8.5q37 0 63.5 -26.5t26.5 -63.5q0 -26 -14.5 -48t-27.5 -32t-42 -29z" />
    <glyph glyph-name="Icircumflex" unicode="&#xce;" horiz-adv-x="796" 
d="M733 0h-667v61h151v1246h-151v61h667v-61h-172v-1246h172v-61zM303 1925h191l251 -356l-4 -4h-114l-228 200l-235 -200h-105l-4 4z" />
    <glyph glyph-name="Idieresis" unicode="&#xcf;" horiz-adv-x="796" 
d="M733 0h-667v61h151v1246h-151v61h667v-61h-172v-1246h172v-61zM612 1536q-52 0 -89.5 40.5t-37.5 92.5q0 53 37.5 93t89.5 40q54 0 93.5 -39t39.5 -94t-38.5 -94t-94.5 -39zM180 1536q-52 0 -89.5 40.5t-37.5 92.5q0 53 37.5 93t89.5 40q54 0 93.5 -39t39.5 -94
t-38.5 -94t-94.5 -39z" />
    <glyph glyph-name="Eth" unicode="&#xd0;" horiz-adv-x="1593" 
d="M244 61v641h-158v80h158v525h-154v61h762q131 0 249.5 -55t203 -146.5t134.5 -215.5t50 -257q0 -134 -36 -246t-94.5 -188t-136.5 -131t-158.5 -83t-164.5 -36q-113 -10 -207 -10h-602v61h154zM588 1307v-525h248v-80h-248v-641h194q127 0 195 49t96 142q23 75 23 203
v481q0 165 -39 250q-30 65 -91.5 93t-183.5 28h-194z" />
    <glyph glyph-name="Ntilde" unicode="&#xd1;" horiz-adv-x="1478" 
d="M1239 1247v-1278h-47l-877 1219v-1051q0 -70 80 -76h117v-61h-451v61h99q48 3 60.5 28t12.5 79v1012q0 13 0.5 34t0.5 28.5t-1.5 21t-5.5 18t-11 11.5t-19 8.5t-28.5 3.5t-39.5 2h-68v61h541l576 -811v690q0 28 -45 44t-91 16h-57v61h432v-61h-86q-92 0 -92 -60z
M1028 1802h88q-61 -258 -248 -258q-70 0 -174 49q-100 49 -147 49q-32 0 -59 -28.5t-33 -67.5h-86q15 107 77 181.5t164 74.5q66 0 170 -49q104 -51 142 -51q23 0 40 8t29.5 24t20 30.5t16.5 37.5z" />
    <glyph glyph-name="Ograve" unicode="&#xd2;" horiz-adv-x="1593" 
d="M502 883v-344q0 -72 0.5 -118t3 -98t7 -82t12.5 -64t19 -52t28 -37.5t37.5 -28t49 -16t61.5 -10t77 -2.5q73 0 120 6.5t82 32t52.5 54.5t28 95.5t12.5 132.5t2 187v344q0 188 -28.5 285t-89.5 133t-179 36t-178.5 -36t-88.5 -133t-28 -285zM797 1399q83 0 176 -27.5
t187 -86t169 -139t122.5 -197.5t47.5 -251q0 -199 -91 -366t-252.5 -265t-358.5 -98q-147 0 -277.5 57.5t-223 155.5t-146.5 232.5t-54 283.5q0 134 47.5 251t123 197.5t169 139t186.5 86t175 27.5zM838 1577l-281 180q-29 19 -42 29t-27.5 32t-14.5 48q0 37 26.5 63.5
t63.5 26.5q26 0 49.5 -8.5t46 -28t36 -33.5t37.5 -43t32 -39l199 -227h-125z" />
    <glyph glyph-name="Oacute" unicode="&#xd3;" horiz-adv-x="1593" 
d="M502 883v-344q0 -72 0.5 -118t3 -98t7 -82t12.5 -64t19 -52t28 -37.5t37.5 -28t49 -16t61.5 -10t77 -2.5q73 0 120 6.5t82 32t52.5 54.5t28 95.5t12.5 132.5t2 187v344q0 188 -28.5 285t-89.5 133t-179 36t-178.5 -36t-88.5 -133t-28 -285zM797 1399q83 0 176 -27.5
t187 -86t169 -139t122.5 -197.5t47.5 -251q0 -199 -91 -366t-252.5 -265t-358.5 -98q-147 0 -277.5 57.5t-223 155.5t-146.5 232.5t-54 283.5q0 134 47.5 251t123 197.5t169 139t186.5 86t175 27.5zM1040 1757l-280 -180h-125l199 227q9 10 32 39t36.5 43t36 33.5t46 28
t49.5 8.5q37 0 63.5 -26.5t26.5 -63.5q0 -26 -14.5 -48t-27.5 -32t-42 -29z" />
    <glyph glyph-name="Ocircumflex" unicode="&#xd4;" horiz-adv-x="1593" 
d="M502 883v-344q0 -72 0.5 -118t3 -98t7 -82t12.5 -64t19 -52t28 -37.5t37.5 -28t49 -16t61.5 -10t77 -2.5q73 0 120 6.5t82 32t52.5 54.5t28 95.5t12.5 132.5t2 187v344q0 188 -28.5 285t-89.5 133t-179 36t-178.5 -36t-88.5 -133t-28 -285zM797 1399q83 0 176 -27.5
t187 -86t169 -139t122.5 -197.5t47.5 -251q0 -199 -91 -366t-252.5 -265t-358.5 -98q-147 0 -277.5 57.5t-223 155.5t-146.5 232.5t-54 283.5q0 134 47.5 251t123 197.5t169 139t186.5 86t175 27.5zM702 1925h191l252 -356l-4 -4h-115l-227 200l-236 -200h-104l-4 4z" />
    <glyph glyph-name="Otilde" unicode="&#xd5;" horiz-adv-x="1593" 
d="M502 883v-344q0 -72 0.5 -118t3 -98t7 -82t12.5 -64t19 -52t28 -37.5t37.5 -28t49 -16t61.5 -10t77 -2.5q73 0 120 6.5t82 32t52.5 54.5t28 95.5t12.5 132.5t2 187v344q0 188 -28.5 285t-89.5 133t-179 36t-178.5 -36t-88.5 -133t-28 -285zM797 1399q83 0 176 -27.5
t187 -86t169 -139t122.5 -197.5t47.5 -251q0 -199 -91 -366t-252.5 -265t-358.5 -98q-147 0 -277.5 57.5t-223 155.5t-146.5 232.5t-54 283.5q0 134 47.5 251t123 197.5t169 139t186.5 86t175 27.5zM1085 1802h89q-61 -258 -248 -258q-70 0 -174 49q-100 49 -148 49
q-32 0 -59 -28.5t-33 -67.5h-86q15 107 77.5 181.5t164.5 74.5q66 0 170 -49q104 -51 141 -51q23 0 40 8t29.5 24t20 30.5t16.5 37.5z" />
    <glyph glyph-name="Odieresis" unicode="&#xd6;" horiz-adv-x="1593" 
d="M502 883v-344q0 -72 0.5 -118t3 -98t7 -82t12.5 -64t19 -52t28 -37.5t37.5 -28t49 -16t61.5 -10t77 -2.5q73 0 120 6.5t82 32t52.5 54.5t28 95.5t12.5 132.5t2 187v344q0 188 -28.5 285t-89.5 133t-179 36t-178.5 -36t-88.5 -133t-28 -285zM797 1399q83 0 176 -27.5
t187 -86t169 -139t122.5 -197.5t47.5 -251q0 -199 -91 -366t-252.5 -265t-358.5 -98q-147 0 -277.5 57.5t-223 155.5t-146.5 232.5t-54 283.5q0 134 47.5 251t123 197.5t169 139t186.5 86t175 27.5zM1012 1536q-52 0 -89.5 40.5t-37.5 92.5q0 53 37.5 93t89.5 40
q54 0 93.5 -39t39.5 -94t-38.5 -94t-94.5 -39zM580 1536q-52 0 -89.5 40.5t-37.5 92.5q0 53 37.5 93t89.5 40q54 0 93.5 -39t39.5 -94t-38.5 -94t-94.5 -39z" />
    <glyph glyph-name="multiply" unicode="&#xd7;" 
d="M59 119l336 338l-336 338l117 116l336 -338l336 338l117 -116l-336 -338l336 -338l-117 -117l-336 338l-336 -338z" />
    <glyph glyph-name="Oslash" unicode="&#xd8;" horiz-adv-x="1593" 
d="M502 883v-344q0 -144 4 -189l561 807q-25 103 -87 141.5t-183 38.5q-118 0 -178.5 -36t-88.5 -133t-28 -285zM1094 539v344q0 79 -7 151l-569 -819q20 -110 79.5 -147t199.5 -37q73 0 120 6.5t82 32t52.5 54.5t28 95.5t12.5 132.5t2 187zM1157 1286l111 160h106
l-145 -209q123 -93 196.5 -229.5t73.5 -309.5q0 -199 -91 -366t-252.5 -265t-358.5 -98q-208 0 -373 109l-154 -221h-106l188 274q-121 102 -188.5 249.5t-67.5 317.5q0 134 47.5 251t123 197.5t169 139t186.5 86t175 27.5q180 0 360 -113z" />
    <glyph glyph-name="Ugrave" unicode="&#xd9;" horiz-adv-x="1478" 
d="M53 1307v61h678v-61h-172v-992q0 -75 11.5 -124t41.5 -87t85 -55t141 -18q195 -2 295 135q22 24 33 89t12.5 121t1.5 167v688q0 32 -25 54t-68 22h-92v61h432v-61h-122q-64 0 -64 -76v-842q0 -96 -15.5 -166t-64.5 -123q-60 -66 -160 -98.5t-268 -32.5q-261 0 -389.5 104
t-128.5 345v889h-162zM780 1577l-280 180q-29 19 -42 29t-27.5 32t-14.5 48q0 37 26.5 63.5t63.5 26.5q26 0 49.5 -8.5t46 -28t36 -33.5t37.5 -43t32 -39l198 -227h-125z" />
    <glyph glyph-name="Uacute" unicode="&#xda;" horiz-adv-x="1478" 
d="M53 1307v61h678v-61h-172v-992q0 -75 11.5 -124t41.5 -87t85 -55t141 -18q195 -2 295 135q22 24 33 89t12.5 121t1.5 167v688q0 32 -25 54t-68 22h-92v61h432v-61h-122q-64 0 -64 -76v-842q0 -96 -15.5 -166t-64.5 -123q-60 -66 -160 -98.5t-268 -32.5q-261 0 -389.5 104
t-128.5 345v889h-162zM983 1757l-281 -180h-124l198 227q8 10 32 39t37.5 43t36 33.5t46 28t49.5 8.5q37 0 63.5 -26.5t26.5 -63.5q0 -26 -14.5 -48t-27.5 -32t-42 -29z" />
    <glyph glyph-name="Ucircumflex" unicode="&#xdb;" horiz-adv-x="1478" 
d="M53 1307v61h678v-61h-172v-992q0 -75 11.5 -124t41.5 -87t85 -55t141 -18q195 -2 295 135q22 24 33 89t12.5 121t1.5 167v688q0 32 -25 54t-68 22h-92v61h432v-61h-122q-64 0 -64 -76v-842q0 -96 -15.5 -166t-64.5 -123q-60 -66 -160 -98.5t-268 -32.5q-261 0 -389.5 104
t-128.5 345v889h-162zM645 1925h191l251 -356l-4 -4h-114l-228 200l-235 -200h-105l-4 4z" />
    <glyph glyph-name="Udieresis" unicode="&#xdc;" horiz-adv-x="1478" 
d="M53 1307v61h678v-61h-172v-992q0 -75 11.5 -124t41.5 -87t85 -55t141 -18q195 -2 295 135q22 24 33 89t12.5 121t1.5 167v688q0 32 -25 54t-68 22h-92v61h432v-61h-122q-64 0 -64 -76v-842q0 -96 -15.5 -166t-64.5 -123q-60 -66 -160 -98.5t-268 -32.5q-261 0 -389.5 104
t-128.5 345v889h-162zM954 1536q-52 0 -89.5 40.5t-37.5 92.5q0 53 37.5 93t89.5 40q54 0 93.5 -39t39.5 -94t-38.5 -94t-94.5 -39zM522 1536q-52 0 -89.5 40.5t-37.5 92.5q0 53 37.5 93t89.5 40q54 0 93.5 -39t39.5 -94t-38.5 -94t-94.5 -39z" />
    <glyph glyph-name="Yacute" unicode="&#xdd;" horiz-adv-x="1366" 
d="M12 1307v61h654v-61h-154l328 -555l260 501q12 23 -6.5 38.5t-51.5 15.5h-120v61h432v-61h-76q-45 0 -70 -20t-63 -93l-271 -526v-607h181v-61h-697v61h172v555l-393 691h-125zM987 1757l-280 -180h-125l198 227q8 10 32 39t37.5 43t36 33.5t46 28t49.5 8.5
q37 0 63.5 -26.5t26.5 -63.5q0 -26 -14.5 -48t-27.5 -32t-42 -29z" />
    <glyph glyph-name="Thorn" unicode="&#xde;" horiz-adv-x="1366" 
d="M575 1057v-613h142q67 0 107 7t70 27t42 57t12 98v235q0 61 -12 98t-42 57t-70 27t-107 7h-142zM575 383v-322h185v-61h-682v61h153v1246h-153v61h682v-61h-185v-189h265q126 0 223.5 -31.5t153.5 -83.5t84 -111.5t28 -123.5q0 -68 -22.5 -125t-59.5 -96t-90 -69
t-108 -47.5t-119.5 -28.5t-119.5 -15t-112 -4h-123z" />
    <glyph glyph-name="germandbls" unicode="&#xdf;" horiz-adv-x="1138" 
d="M131 61v920q0 181 119.5 284t324.5 103q88 0 162.5 -21t123 -53.5t83 -73.5t49.5 -80t15 -73q0 -63 -17.5 -113t-45.5 -82.5t-73.5 -58.5t-90.5 -41t-107 -29v-4q92 -11 163.5 -36.5t127.5 -70.5t86 -116t30 -166q0 -71 -23.5 -137.5t-67 -121t-114 -87.5t-157.5 -33
q-92 0 -165 48t-73 135q0 45 28.5 80.5t72.5 35.5q43 0 67.5 -25.5t24.5 -68.5q0 -30 -14.5 -54t-29 -40t-14.5 -25q0 -28 50 -28q44 0 74 34.5t30 77.5v353q0 122 -53 170.5t-178 48.5q-13 0 -20 12t-5.5 24t10.5 13q97 9 125 19q67 26 68 110v270q0 74 -40.5 112
t-115.5 38q-35 0 -60.5 -9.5t-41 -29.5t-25.5 -40.5t-14 -52.5t-5 -53.5t-1 -56.5v-1069h-394v61h111z" />
    <glyph glyph-name="agrave" unicode="&#xe0;" 
d="M612 205v209q-42 -2 -70.5 -5.5t-68 -14t-63 -27t-41 -47t-17.5 -72.5q0 -60 31 -111t88 -51q66 0 103.5 36.5t37.5 82.5zM612 463v137q0 85 -7 108q-16 51 -91 60q-20 2 -45 2q-29 0 -69 -12.5t-40 -36.5q0 -9 21 -43q20 -32 20 -51q0 -67 -33.5 -105.5t-97.5 -38.5
q-56 0 -93.5 33.5t-37.5 89.5q0 57 36 101.5t91.5 68.5t112 35.5t108.5 11.5q94 0 169.5 -12.5t119 -33t66 -43.5t22.5 -46v-498q0 -20 1.5 -33.5t7 -29t18.5 -23.5t33 -8q11 0 28 9.5t23 19.5l37 -39q-41 -64 -90 -90.5t-123 -26.5q-62 0 -114.5 44t-68.5 98
q-56 -65 -130.5 -103.5t-155.5 -38.5q-92 0 -166 51t-74 140q0 69 37.5 123t93.5 86.5t129.5 54t137 30t124.5 9.5zM553 1020l-281 180q-29 19 -42 29t-27.5 32t-14.5 48q0 37 27 63.5t64 26.5q26 0 49.5 -8.5t46 -28t36 -33.5t36.5 -43t32 -39l199 -227h-125z" />
    <glyph glyph-name="aacute" unicode="&#xe1;" 
d="M612 205v209q-42 -2 -70.5 -5.5t-68 -14t-63 -27t-41 -47t-17.5 -72.5q0 -60 31 -111t88 -51q66 0 103.5 36.5t37.5 82.5zM612 463v137q0 85 -7 108q-16 51 -91 60q-20 2 -45 2q-29 0 -69 -12.5t-40 -36.5q0 -9 21 -43q20 -32 20 -51q0 -67 -33.5 -105.5t-97.5 -38.5
q-56 0 -93.5 33.5t-37.5 89.5q0 57 36 101.5t91.5 68.5t112 35.5t108.5 11.5q94 0 169.5 -12.5t119 -33t66 -43.5t22.5 -46v-498q0 -20 1.5 -33.5t7 -29t18.5 -23.5t33 -8q11 0 28 9.5t23 19.5l37 -39q-41 -64 -90 -90.5t-123 -26.5q-62 0 -114.5 44t-68.5 98
q-56 -65 -130.5 -103.5t-155.5 -38.5q-92 0 -166 51t-74 140q0 69 37.5 123t93.5 86.5t129.5 54t137 30t124.5 9.5zM756 1200l-281 -180h-125l199 227q8 10 32 39t37.5 43t36 33.5t46 28t49.5 8.5q37 0 63.5 -26.5t26.5 -63.5q0 -26 -14.5 -48t-27.5 -32t-42 -29z" />
    <glyph glyph-name="acircumflex" unicode="&#xe2;" 
d="M612 205v209q-42 -2 -70.5 -5.5t-68 -14t-63 -27t-41 -47t-17.5 -72.5q0 -60 31 -111t88 -51q66 0 103.5 36.5t37.5 82.5zM612 463v137q0 85 -7 108q-16 51 -91 60q-20 2 -45 2q-29 0 -69 -12.5t-40 -36.5q0 -9 21 -43q20 -32 20 -51q0 -67 -33.5 -105.5t-97.5 -38.5
q-56 0 -93.5 33.5t-37.5 89.5q0 57 36 101.5t91.5 68.5t112 35.5t108.5 11.5q94 0 169.5 -12.5t119 -33t66 -43.5t22.5 -46v-498q0 -20 1.5 -33.5t7 -29t18.5 -23.5t33 -8q11 0 28 9.5t23 19.5l37 -39q-41 -64 -90 -90.5t-123 -26.5q-62 0 -114.5 44t-68.5 98
q-56 -65 -130.5 -103.5t-155.5 -38.5q-92 0 -166 51t-74 140q0 69 37.5 123t93.5 86.5t129.5 54t137 30t124.5 9.5zM418 1368h190l252 -356l-4 -4h-115l-227 200l-235 -200h-105l-4 4z" />
    <glyph glyph-name="atilde" unicode="&#xe3;" 
d="M612 205v209q-42 -2 -70.5 -5.5t-68 -14t-63 -27t-41 -47t-17.5 -72.5q0 -60 31 -111t88 -51q66 0 103.5 36.5t37.5 82.5zM612 463v137q0 85 -7 108q-16 51 -91 60q-20 2 -45 2q-29 0 -69 -12.5t-40 -36.5q0 -9 21 -43q20 -32 20 -51q0 -67 -33.5 -105.5t-97.5 -38.5
q-56 0 -93.5 33.5t-37.5 89.5q0 57 36 101.5t91.5 68.5t112 35.5t108.5 11.5q94 0 169.5 -12.5t119 -33t66 -43.5t22.5 -46v-498q0 -20 1.5 -33.5t7 -29t18.5 -23.5t33 -8q11 0 28 9.5t23 19.5l37 -39q-41 -64 -90 -90.5t-123 -26.5q-62 0 -114.5 44t-68.5 98
q-56 -65 -130.5 -103.5t-155.5 -38.5q-92 0 -166 51t-74 140q0 69 37.5 123t93.5 86.5t129.5 54t137 30t124.5 9.5zM801 1286h88q-61 -258 -248 -258q-70 0 -174 49q-100 49 -148 49q-32 0 -59 -28.5t-33 -67.5h-86q15 107 77.5 181.5t164.5 74.5q66 0 170 -49
q104 -51 141 -51q42 0 65 26t42 74z" />
    <glyph glyph-name="adieresis" unicode="&#xe4;" 
d="M612 205v209q-42 -2 -70.5 -5.5t-68 -14t-63 -27t-41 -47t-17.5 -72.5q0 -60 31 -111t88 -51q66 0 103.5 36.5t37.5 82.5zM612 463v137q0 85 -7 108q-16 51 -91 60q-20 2 -45 2q-29 0 -69 -12.5t-40 -36.5q0 -9 21 -43q20 -32 20 -51q0 -67 -33.5 -105.5t-97.5 -38.5
q-56 0 -93.5 33.5t-37.5 89.5q0 57 36 101.5t91.5 68.5t112 35.5t108.5 11.5q94 0 169.5 -12.5t119 -33t66 -43.5t22.5 -46v-498q0 -20 1.5 -33.5t7 -29t18.5 -23.5t33 -8q11 0 28 9.5t23 19.5l37 -39q-41 -64 -90 -90.5t-123 -26.5q-62 0 -114.5 44t-68.5 98
q-56 -65 -130.5 -103.5t-155.5 -38.5q-92 0 -166 51t-74 140q0 69 37.5 123t93.5 86.5t129.5 54t137 30t124.5 9.5zM727 1020q-52 0 -89.5 40.5t-37.5 92.5q0 53 37.5 93t89.5 40q54 0 93.5 -39t39.5 -94t-39 -94t-94 -39zM295 1020q-52 0 -89.5 40.5t-37.5 92.5
q0 53 37.5 93t89.5 40q54 0 93.5 -39t39.5 -94t-39 -94t-94 -39z" />
    <glyph glyph-name="aring" unicode="&#xe5;" 
d="M612 205v209q-42 -2 -70.5 -5.5t-68 -14t-63 -27t-41 -47t-17.5 -72.5q0 -60 31 -111t88 -51q66 0 103.5 36.5t37.5 82.5zM612 463v137q0 85 -7 108q-16 51 -91 60q-20 2 -45 2q-29 0 -69 -12.5t-40 -36.5q0 -9 21 -43q20 -32 20 -51q0 -67 -33.5 -105.5t-97.5 -38.5
q-56 0 -93.5 33.5t-37.5 89.5q0 57 36 101.5t91.5 68.5t112 35.5t108.5 11.5q94 0 169.5 -12.5t119 -33t66 -43.5t22.5 -46v-498q0 -20 1.5 -33.5t7 -29t18.5 -23.5t33 -8q11 0 28 9.5t23 19.5l37 -39q-41 -64 -90 -90.5t-123 -26.5q-62 0 -114.5 44t-68.5 98
q-56 -65 -130.5 -103.5t-155.5 -38.5q-92 0 -166 51t-74 140q0 69 37.5 123t93.5 86.5t129.5 54t137 30t124.5 9.5zM512 963q-90 0 -153.5 64.5t-63.5 154.5q0 88 64 152.5t153 64.5q90 0 154.5 -63.5t64.5 -153.5q0 -92 -64 -155.5t-155 -63.5zM512 1298q-48 0 -83.5 -34.5
t-35.5 -81.5t36 -83t83 -36t84 36.5t37 82.5q0 47 -36.5 81.5t-84.5 34.5z" />
    <glyph glyph-name="ae" unicode="&#xe6;" horiz-adv-x="1478" 
d="M856 483h268v201q0 86 -143 86q-63 0 -94 -25.5t-31 -68.5v-193zM586 467v225q0 27 -13 44t-37 23.5t-40.5 8.5t-40.5 2q-115 0 -115 -41q0 -12 22 -45q21 -35 21 -72q0 -59 -39.5 -91t-97.5 -32q-51 0 -85 39t-34 90q0 59 35.5 102t93 64t112 30t109.5 9q89 0 152 -20.5
t131 -73.5q87 94 239 94q93 0 185.5 -43t155.5 -124t63 -177q0 -49 -23 -49h-524v-264q0 -77 41.5 -110t124.5 -33q124 0 213 61t123 178l47 -16q-38 -138 -143.5 -207.5t-253.5 -69.5q-75 0 -144.5 15t-138.5 55.5t-107 103.5q-43 -81 -127.5 -127.5t-179.5 -46.5
q-97 0 -167 47.5t-70 141.5q0 270 512 309zM586 238v176q-15 -2 -49 -4.5t-48.5 -4.5t-42 -7t-40 -11.5t-30.5 -19.5t-26 -29.5t-14 -41t-6 -56.5q0 -70 38 -112t105 -42q47 0 80 43.5t33 108.5z" />
    <glyph glyph-name="ccedilla" unicode="&#xe7;" 
d="M879 258l45 -25q-40 -116 -130.5 -187t-209.5 -75l-45 -102q29 10 71 10q79 0 128.5 -37t49.5 -114q0 -51 -28 -87t-74 -54t-90.5 -25.5t-91.5 -7.5q-37 0 -90 11t-90 25l32 76q58 -26 148 -26q37 0 64.5 23t27.5 58q0 36 -25.5 55t-62.5 19t-64 -8l-20 16l76 172
q-159 21 -278.5 137.5t-119.5 274.5q0 122 66.5 223.5t173 157t227.5 55.5q80 0 145 -23.5t102 -58.5t57 -72t20 -69q0 -64 -40.5 -102.5t-102.5 -38.5q-58 0 -97 41t-39 100q0 21 11.5 46t23.5 34q27 18 27 45q0 45 -109 45q-38 0 -62.5 -7t-46.5 -29t-32 -67t-10 -116
v-264q0 -160 30 -212t127 -52q114 0 185.5 60t120.5 175z" />
    <glyph glyph-name="egrave" unicode="&#xe8;" 
d="M852 430h-449v-264q0 -77 41.5 -110t124.5 -33q124 0 213 61t123 178l47 -16q-38 -138 -143.5 -207.5t-253.5 -69.5q-97 0 -183 27t-153.5 78.5t-107 133.5t-39.5 183t42 184.5t110.5 136.5t153 82t173.5 29q102 0 192.5 -43t147.5 -125.5t57 -185.5q0 -12 -5.5 -20
t-12 -12t-18.5 -6t-20 -2t-22 0.5t-18 0.5zM403 483h269v201q0 86 -144 86q-63 0 -94 -25.5t-31 -68.5v-193zM553 1020l-281 180q-29 19 -42 29t-27.5 32t-14.5 48q0 37 27 63.5t64 26.5q26 0 49.5 -8.5t46 -28t36 -33.5t36.5 -43t32 -39l199 -227h-125z" />
    <glyph glyph-name="eacute" unicode="&#xe9;" 
d="M852 430h-449v-264q0 -77 41.5 -110t124.5 -33q124 0 213 61t123 178l47 -16q-38 -138 -143.5 -207.5t-253.5 -69.5q-97 0 -183 27t-153.5 78.5t-107 133.5t-39.5 183t42 184.5t110.5 136.5t153 82t173.5 29q102 0 192.5 -43t147.5 -125.5t57 -185.5q0 -12 -5.5 -20
t-12 -12t-18.5 -6t-20 -2t-22 0.5t-18 0.5zM403 483h269v201q0 86 -144 86q-63 0 -94 -25.5t-31 -68.5v-193zM756 1200l-281 -180h-125l199 227q8 10 32 39t37.5 43t36 33.5t46 28t49.5 8.5q37 0 63.5 -26.5t26.5 -63.5q0 -26 -14.5 -48t-27.5 -32t-42 -29z" />
    <glyph glyph-name="ecircumflex" unicode="&#xea;" 
d="M852 430h-449v-264q0 -77 41.5 -110t124.5 -33q124 0 213 61t123 178l47 -16q-38 -138 -143.5 -207.5t-253.5 -69.5q-97 0 -183 27t-153.5 78.5t-107 133.5t-39.5 183t42 184.5t110.5 136.5t153 82t173.5 29q102 0 192.5 -43t147.5 -125.5t57 -185.5q0 -12 -5.5 -20
t-12 -12t-18.5 -6t-20 -2t-22 0.5t-18 0.5zM403 483h269v201q0 86 -144 86q-63 0 -94 -25.5t-31 -68.5v-193zM418 1368h190l252 -356l-4 -4h-115l-227 200l-235 -200h-105l-4 4z" />
    <glyph glyph-name="edieresis" unicode="&#xeb;" 
d="M852 430h-449v-264q0 -77 41.5 -110t124.5 -33q124 0 213 61t123 178l47 -16q-38 -138 -143.5 -207.5t-253.5 -69.5q-97 0 -183 27t-153.5 78.5t-107 133.5t-39.5 183t42 184.5t110.5 136.5t153 82t173.5 29q102 0 192.5 -43t147.5 -125.5t57 -185.5q0 -12 -5.5 -20
t-12 -12t-18.5 -6t-20 -2t-22 0.5t-18 0.5zM403 483h269v201q0 86 -144 86q-63 0 -94 -25.5t-31 -68.5v-193zM727 1020q-52 0 -89.5 40.5t-37.5 92.5q0 53 37.5 93t89.5 40q54 0 93.5 -39t39.5 -94t-39 -94t-94 -39zM295 1020q-52 0 -89.5 40.5t-37.5 92.5q0 53 37.5 93
t89.5 40q54 0 93.5 -39t39.5 -94t-39 -94t-94 -39z" />
    <glyph glyph-name="igrave" unicode="&#xec;" horiz-adv-x="569" 
d="M152 57v697h-142v57h142q47 0 141 4t141 4v-762h125v-57h-541v57h134zM326 1020l-281 180q-29 19 -42 29t-27.5 32t-14.5 48q0 37 26.5 63.5t63.5 26.5q26 0 49.5 -8.5t46 -28t36 -33.5t37.5 -43t32 -39l199 -227h-125z" />
    <glyph glyph-name="iacute" unicode="&#xed;" horiz-adv-x="569" 
d="M152 57v697h-142v57h142q47 0 141 4t141 4v-762h125v-57h-541v57h134zM528 1200l-280 -180h-125l199 227q9 10 32 39t36.5 43t36 33.5t46 28t49.5 8.5q37 0 63.5 -26.5t26.5 -63.5q0 -26 -14.5 -48t-27.5 -32t-42 -29z" />
    <glyph glyph-name="icircumflex" unicode="&#xee;" horiz-adv-x="569" 
d="M152 57v697h-142v57h142q47 0 141 4t141 4v-762h125v-57h-541v57h134zM190 1368h191l252 -356l-4 -4h-115l-227 200l-236 -200h-104l-4 4z" />
    <glyph glyph-name="idieresis" unicode="&#xef;" horiz-adv-x="569" 
d="M152 57v697h-142v57h142q47 0 141 4t141 4v-762h125v-57h-541v57h134zM500 1020q-52 0 -89.5 40.5t-37.5 92.5q0 53 37.5 93t89.5 40q54 0 93.5 -39t39.5 -94t-38.5 -94t-94.5 -39zM68 1020q-52 0 -89.5 40.5t-37.5 92.5q0 53 37.5 93t89.5 40q54 0 93.5 -39t39.5 -94
t-38.5 -94t-94.5 -39z" />
    <glyph glyph-name="eth" unicode="&#xf0;" horiz-adv-x="1138" 
d="M78 389q0 129 72 230t183 152.5t236 51.5q99 0 160 -41q-13 88 -55 180.5t-94 163.5l-197 -108l-59 72l192 106q-43 35 -110 68t-105 41l25 63q164 -23 333 -104l189 104l55 -68l-164 -90q322 -269 322 -723q0 -77 -17.5 -150t-57 -140t-95.5 -117.5t-139 -80.5t-183 -30
q-107 0 -200 34t-156 91.5t-99 134t-36 160.5zM410 610v-436q0 -85 40 -118t119 -33t119.5 33.5t40.5 117.5v436q0 91 -36.5 125.5t-123.5 34.5q-80 0 -119.5 -35.5t-39.5 -124.5z" />
    <glyph glyph-name="ntilde" unicode="&#xf1;" horiz-adv-x="1138" 
d="M432 819v-188q63 108 143.5 150t192.5 42q51 0 89.5 -8.5t72 -29t51.5 -60.5t18 -98v-570h127v-57h-512v57h111v523q0 93 -21 126t-67 33q-62 0 -110.5 -47.5t-71.5 -110t-23 -122.5v-402h109v-57h-514v57h131v697h-131v57h131q46 0 137 4t137 4zM858 1286h88
q-61 -258 -248 -258q-70 0 -174 49q-100 49 -147 49q-32 0 -59 -28.5t-33 -67.5h-86q15 107 77 181.5t164 74.5q66 0 170 -49q104 -51 142 -51q23 0 40 8t29.5 24t20 30.5t16.5 37.5z" />
    <glyph glyph-name="ograve" unicode="&#xf2;" horiz-adv-x="1138" 
d="M729 174v436q0 96 -30 128t-130 32q-94 0 -126.5 -33t-32.5 -127v-436q0 -85 40 -118t119 -33t119.5 33.5t40.5 117.5zM569 823q125 0 236 -51.5t183.5 -152.5t72.5 -230q0 -128 -68.5 -225t-179 -146t-244.5 -49q-107 0 -200 34t-156 91.5t-99 134t-36 160.5
q0 129 72 230t183 152.5t236 51.5zM610 1020l-280 180q-29 19 -42 29t-27.5 32t-14.5 48q0 37 26.5 63.5t63.5 26.5q26 0 49.5 -8.5t46 -28t36 -33.5t37.5 -43t32 -39l198 -227h-125z" />
    <glyph glyph-name="oacute" unicode="&#xf3;" horiz-adv-x="1138" 
d="M729 174v436q0 96 -30 128t-130 32q-94 0 -126.5 -33t-32.5 -127v-436q0 -85 40 -118t119 -33t119.5 33.5t40.5 117.5zM569 823q125 0 236 -51.5t183.5 -152.5t72.5 -230q0 -128 -68.5 -225t-179 -146t-244.5 -49q-107 0 -200 34t-156 91.5t-99 134t-36 160.5
q0 129 72 230t183 152.5t236 51.5zM813 1200l-281 -180h-124l198 227q8 10 32 39t37.5 43t36 33.5t46 28t49.5 8.5q37 0 63.5 -26.5t26.5 -63.5q0 -26 -14.5 -48t-27.5 -32t-42 -29z" />
    <glyph glyph-name="ocircumflex" unicode="&#xf4;" horiz-adv-x="1138" 
d="M729 174v436q0 96 -30 128t-130 32q-94 0 -126.5 -33t-32.5 -127v-436q0 -85 40 -118t119 -33t119.5 33.5t40.5 117.5zM569 823q125 0 236 -51.5t183.5 -152.5t72.5 -230q0 -128 -68.5 -225t-179 -146t-244.5 -49q-107 0 -200 34t-156 91.5t-99 134t-36 160.5
q0 129 72 230t183 152.5t236 51.5zM475 1368h191l252 -356l-5 -4h-114l-228 200l-235 -200h-105l-4 4z" />
    <glyph glyph-name="otilde" unicode="&#xf5;" horiz-adv-x="1138" 
d="M729 174v436q0 96 -30 128t-130 32q-94 0 -126.5 -33t-32.5 -127v-436q0 -85 40 -118t119 -33t119.5 33.5t40.5 117.5zM569 823q125 0 236 -51.5t183.5 -152.5t72.5 -230q0 -128 -68.5 -225t-179 -146t-244.5 -49q-107 0 -200 34t-156 91.5t-99 134t-36 160.5
q0 129 72 230t183 152.5t236 51.5zM858 1286h88q-61 -258 -248 -258q-70 0 -174 49q-100 49 -147 49q-32 0 -59 -28.5t-33 -67.5h-86q15 107 77 181.5t164 74.5q66 0 170 -49q104 -51 142 -51q23 0 40 8t29.5 24t20 30.5t16.5 37.5z" />
    <glyph glyph-name="odieresis" unicode="&#xf6;" horiz-adv-x="1138" 
d="M729 174v436q0 96 -30 128t-130 32q-94 0 -126.5 -33t-32.5 -127v-436q0 -85 40 -118t119 -33t119.5 33.5t40.5 117.5zM569 823q125 0 236 -51.5t183.5 -152.5t72.5 -230q0 -128 -68.5 -225t-179 -146t-244.5 -49q-107 0 -200 34t-156 91.5t-99 134t-36 160.5
q0 129 72 230t183 152.5t236 51.5zM784 1020q-52 0 -89.5 40.5t-37.5 92.5q0 53 37.5 93t89.5 40q54 0 94 -39t40 -94t-39 -94t-95 -39zM352 1020q-52 0 -89.5 40.5t-37.5 92.5q0 53 37.5 93t89.5 40q54 0 93.5 -39t39.5 -94t-38.5 -94t-94.5 -39z" />
    <glyph glyph-name="divide" unicode="&#xf7;" 
d="M967 373h-908v166h908v-166zM514 643q-52 0 -89.5 40.5t-37.5 92.5q0 53 37.5 93t89.5 40q54 0 93.5 -39t39.5 -94q0 -56 -38.5 -94.5t-94.5 -38.5zM514 2q-52 0 -89.5 40.5t-37.5 92.5q0 53 37.5 93t89.5 40q54 0 93.5 -39t39.5 -94t-38.5 -94t-94.5 -39z" />
    <glyph glyph-name="oslash" unicode="&#xf8;" horiz-adv-x="1138" 
d="M410 610v-409l307 512q-13 32 -47 44.5t-101 12.5q-94 0 -126.5 -33t-32.5 -127zM971 985l-137 -229q103 -55 165 -150.5t62 -216.5q0 -128 -68.5 -225t-179 -146t-244.5 -49q-106 0 -188 33l-131 -217h-90l149 248q-108 54 -169.5 148.5t-61.5 207.5q0 129 72 230
t183 152.5t236 51.5q103 0 193 -35l119 197h90zM729 174v408l-299 -498q32 -61 139 -61q79 0 119.5 33.5t40.5 117.5z" />
    <glyph glyph-name="ugrave" unicode="&#xf9;" horiz-adv-x="1138" 
d="M713 -20v176h-4q-35 -94 -120 -140.5t-194 -46.5q-53 0 -92 8t-65.5 18t-44 34.5t-27 43t-14 59t-5 66t-0.5 80.5v9v467h-141v57h141q48 0 142 4t141 4v-571v-30v-47t2 -38.5t7 -34.5t14 -23.5t24 -17t35 -4.5q53 0 102 43.5t74 94.5t25 85v478h-142v57h142q47 0 141 4
t141 4v-762h138v-57h-138q-63 0 -141 -10q-117 -10 -141 -10zM610 1020l-280 180q-29 19 -42 29t-27.5 32t-14.5 48q0 37 26.5 63.5t63.5 26.5q26 0 49.5 -8.5t46 -28t36 -33.5t37.5 -43t32 -39l198 -227h-125z" />
    <glyph glyph-name="uacute" unicode="&#xfa;" horiz-adv-x="1138" 
d="M713 -20v176h-4q-35 -94 -120 -140.5t-194 -46.5q-53 0 -92 8t-65.5 18t-44 34.5t-27 43t-14 59t-5 66t-0.5 80.5v9v467h-141v57h141q48 0 142 4t141 4v-571v-30v-47t2 -38.5t7 -34.5t14 -23.5t24 -17t35 -4.5q53 0 102 43.5t74 94.5t25 85v478h-142v57h142q47 0 141 4
t141 4v-762h138v-57h-138q-63 0 -141 -10q-117 -10 -141 -10zM813 1200l-281 -180h-124l198 227q8 10 32 39t37.5 43t36 33.5t46 28t49.5 8.5q37 0 63.5 -26.5t26.5 -63.5q0 -26 -14.5 -48t-27.5 -32t-42 -29z" />
    <glyph glyph-name="ucircumflex" unicode="&#xfb;" horiz-adv-x="1138" 
d="M713 -20v176h-4q-35 -94 -120 -140.5t-194 -46.5q-53 0 -92 8t-65.5 18t-44 34.5t-27 43t-14 59t-5 66t-0.5 80.5v9v467h-141v57h141q48 0 142 4t141 4v-571v-30v-47t2 -38.5t7 -34.5t14 -23.5t24 -17t35 -4.5q53 0 102 43.5t74 94.5t25 85v478h-142v57h142q47 0 141 4
t141 4v-762h138v-57h-138q-63 0 -141 -10q-117 -10 -141 -10zM475 1368h191l252 -356l-5 -4h-114l-228 200l-235 -200h-105l-4 4z" />
    <glyph glyph-name="udieresis" unicode="&#xfc;" horiz-adv-x="1138" 
d="M713 -20v176h-4q-35 -94 -120 -140.5t-194 -46.5q-53 0 -92 8t-65.5 18t-44 34.5t-27 43t-14 59t-5 66t-0.5 80.5v9v467h-141v57h141q48 0 142 4t141 4v-571v-30v-47t2 -38.5t7 -34.5t14 -23.5t24 -17t35 -4.5q53 0 102 43.5t74 94.5t25 85v478h-142v57h142q47 0 141 4
t141 4v-762h138v-57h-138q-63 0 -141 -10q-117 -10 -141 -10zM784 1020q-52 0 -89.5 40.5t-37.5 92.5q0 53 37.5 93t89.5 40q54 0 94 -39t40 -94t-39 -94t-95 -39zM352 1020q-52 0 -89.5 40.5t-37.5 92.5q0 53 37.5 93t89.5 40q54 0 93.5 -39t39.5 -94t-38.5 -94t-94.5 -39z
" />
    <glyph glyph-name="yacute" unicode="&#xfd;" 
d="M35 754v57h493v-57h-96l199 -443h8l156 381q12 31 -6 46.5t-46 15.5h-75v57h323v-57h-63q-12 0 -22.5 -5.5t-19.5 -20.5t-13.5 -22t-13 -29.5t-9.5 -23.5l-406 -942q-71 -162 -200 -162q-51 0 -91 39t-40 88q0 55 33 89t85 34q49 0 84 -39q11 -12 16 -16.5t16 -10t18 0.5
q12 5 21 11.5t16 18.5l10.5 18t10 22.5t7.5 19.5l74 174l-379 756h-90zM756 1200l-281 -180h-125l199 227q8 10 32 39t37.5 43t36 33.5t46 28t49.5 8.5q37 0 63.5 -26.5t26.5 -63.5q0 -26 -14.5 -48t-27.5 -32t-42 -29z" />
    <glyph glyph-name="thorn" unicode="&#xfe;" horiz-adv-x="1138" 
d="M184 -383v1704h-141v57h141q118 0 283 21v-760h4q51 96 107 140t153 44q85 0 157 -36.5t120 -96.5t75 -137.5t27 -159.5q0 -106 -48 -203t-136.5 -159t-196.5 -62q-77 0 -147.5 41.5t-108.5 108.5h-6v-502h172v-57h-559v57h104zM467 498v-234q0 -43 30 -99t84.5 -99
t112.5 -43q97 0 97 102v508q0 137 -103 137q-54 0 -107 -50t-83.5 -113t-30.5 -109z" />
    <glyph glyph-name="ydieresis" unicode="&#xff;" 
d="M35 754v57h493v-57h-96l199 -443h8l156 381q12 31 -6 46.5t-46 15.5h-75v57h323v-57h-63q-12 0 -22.5 -5.5t-19.5 -20.5t-13.5 -22t-13 -29.5t-9.5 -23.5l-406 -942q-71 -162 -200 -162q-51 0 -91 39t-40 88q0 55 33 89t85 34q49 0 84 -39q11 -12 16 -16.5t16 -10t18 0.5
q12 5 21 11.5t16 18.5l10.5 18t10 22.5t7.5 19.5l74 174l-379 756h-90zM788 1061q-52 0 -89 40.5t-37 92.5q0 53 37 93t89 40q54 0 94 -39t40 -94t-39 -94t-95 -39zM356 1061q-52 0 -89.5 40.5t-37.5 92.5q0 53 37.5 93t89.5 40q54 0 93.5 -39t39.5 -94q0 -56 -38.5 -94.5
t-94.5 -38.5z" />
    <glyph glyph-name="dotlessi" unicode="&#x131;" horiz-adv-x="569" 
d="M152 57v697h-142v57h142q47 0 141 4t141 4v-762h125v-57h-541v57h134z" />
    <glyph glyph-name="Lslash" unicode="&#x141;" horiz-adv-x="1251" 
d="M535 809v-748h229q67 0 122.5 22.5t93 57t70.5 89t53 103.5t42 116h57l-20 -449h-1131v61h139v529l-108 -70l-31 53l139 91v643h-139v61h668v-61h-184v-424l200 127l31 -54z" />
    <glyph glyph-name="lslash" unicode="&#x142;" horiz-adv-x="569" 
d="M137 57v645l-129 -75l-35 41l164 96v557h-143v57h143q55 0 157.5 10t125.5 11v-467l121 72l34 -41l-155 -93v-813h133v-57h-539v57h123z" />
    <glyph glyph-name="OE" unicode="&#x152;" horiz-adv-x="2162" 
d="M1018 375v590q0 97 -9 155.5t-36.5 104t-79 64t-135.5 18.5q-144 0 -215.5 -85.5t-73.5 -248.5v-535q0 -107 21 -182t61 -117t89.5 -60t115.5 -18q156 0 209 65t53 249zM2044 0h-1194q-102 0 -182.5 10.5t-134 25.5t-105 44.5t-82.5 54t-78 68.5q-97 89 -147.5 208.5
t-50.5 250.5q0 189 88.5 351.5t244.5 258.5t342 96h1248l12 -369h-70q-65 174 -146.5 241t-234.5 67h-192v-572q76 0 123.5 11.5t79 43t48.5 74.5t34 119h67v-582h-67q-22 151 -80 207t-205 56v-603h201q67 0 121 9.5t93.5 25t71 43.5t52 56.5t38.5 73t29.5 83.5t24.5 97h63
z" />
    <glyph glyph-name="oe" unicode="&#x153;" horiz-adv-x="1593" 
d="M395 610v-483q0 -104 144 -104q67 0 111 25t44 79v483q0 94 -33.5 127t-117.5 33t-116 -37.5t-32 -122.5zM977 483h268v201q0 86 -143 86q-63 0 -94 -25.5t-31 -68.5v-193zM1454 430h-477v-264q0 -77 41.5 -110t124.5 -33q124 0 213 61t123 178l47 -16
q-38 -138 -144 -207.5t-254 -69.5q-166 0 -290 109q-125 -109 -332 -109q-51 0 -109.5 16.5t-118 51.5t-107.5 84t-78 120t-30 152q0 123 67.5 223t173.5 153.5t226 53.5q59 0 105 -6.5t80.5 -21.5t50.5 -23.5t43.5 -31.5t30.5 -25q51 61 116 84.5t152 23.5q186 0 301 -99
t115 -245q0 -22 -12 -33.5t-24.5 -13.5t-33.5 -2z" />
    <glyph glyph-name="Scaron" unicode="&#x160;" horiz-adv-x="1138" 
d="M811 1309l76 59h63v-362h-65q-24 132 -125 231.5t-230 99.5q-44 0 -90 -12.5t-87 -36.5t-67 -63.5t-26 -87.5q0 -44 14 -75t42.5 -50.5t57 -30t72.5 -20.5q264 -58 371 -105q223 -96 223 -399q0 -93 -28.5 -178t-85 -155.5t-151 -112.5t-214.5 -42q-156 0 -282 97
l-105 -78h-74v397h74q21 -73 56.5 -135t84.5 -112t115 -78.5t141 -28.5q82 0 146.5 24.5t102.5 64.5t57.5 87.5t19.5 97.5q0 37 -10.5 66t-34.5 50.5t-47.5 36.5t-65.5 28.5t-71.5 21t-83 19.5t-82.5 20q-69 18 -119 36t-106 52.5t-91 79t-58.5 115t-23.5 159.5
q0 114 59 208.5t158 148t214 53.5q128 0 276 -90zM664 1565h-191l-248 356l4 4h109l231 -203l228 203h114l4 -4z" />
    <glyph glyph-name="scaron" unicode="&#x161;" horiz-adv-x="796" 
d="M184 43l-57 -43h-51v289h53q21 -111 105 -188.5t194 -77.5q64 0 128.5 38t64.5 101q0 19 -4.5 34t-11.5 25t-19.5 17.5t-23 11.5t-28 7t-29 4t-31.5 2.5t-30 2.5q-65 6 -109.5 14t-99 27.5t-88 48t-56.5 78t-23 115.5q0 127 82.5 200.5t209.5 73.5q35 0 63.5 -5.5
t66.5 -18t59 -17.5q11 -3 28.5 11t30.5 30h41v-235h-57q-34 98 -84 140t-148 42q-27 0 -56.5 -5.5t-60.5 -17t-51 -34.5t-20 -54q0 -33 49.5 -57t118.5 -29q93 -6 158.5 -21.5t120.5 -46t82.5 -84t27.5 -130.5q0 -63 -18.5 -119.5t-54 -102.5t-95 -73t-135.5 -27
q-127 0 -242 74zM492 1008h-191l-248 356l4 4h109l231 -203l228 203h114l4 -4z" />
    <glyph glyph-name="Ydieresis" unicode="&#x178;" horiz-adv-x="1366" 
d="M12 1307v61h654v-61h-154l328 -555l260 501q12 23 -6.5 38.5t-51.5 15.5h-120v61h432v-61h-76q-45 0 -70 -20t-63 -93l-271 -526v-607h181v-61h-697v61h172v555l-393 691h-125zM897 1536q-52 0 -89.5 40.5t-37.5 92.5q0 53 37.5 93t89.5 40q54 0 93.5 -39t39.5 -94
t-39 -94t-94 -39zM465 1536q-52 0 -89.5 40.5t-37.5 92.5q0 53 37.5 93t89.5 40q54 0 93.5 -39t39.5 -94t-39 -94t-94 -39z" />
    <glyph glyph-name="Zcaron" unicode="&#x17d;" horiz-adv-x="1138" 
d="M1040 463h60v-463h-1063v80l688 1227h-184q-306 0 -373 -314h-59l18 375h977v-61l-692 -1246h290q60 0 111 26t85.5 65t63.5 96.5t45.5 106t32.5 108.5zM664 1565h-191l-248 356l4 4h109l231 -203l228 203h114l4 -4z" />
    <glyph glyph-name="zcaron" unicode="&#x17e;" horiz-adv-x="909" 
d="M834 0h-766v41l458 713h-120q-91 0 -147 -58.5t-103 -203.5h-54l11 319h729v-51l-447 -703h142q28 0 53 8t44 19.5t38 32t31 37.5t26.5 46t22.5 47t21.5 49.5l19.5 45.5h51zM549 1008h-191l-247 356l4 4h108l232 -203l227 203h115l4 -4z" />
    <glyph glyph-name="florin" unicode="&#x192;" horiz-adv-x="1251" 
d="M813 723l-59 -346q-84 -492 -324 -719q-58 -55 -138 -85t-163 -24q-80 6 -131 49.5t-61 125.5q-6 48 34 86t88 38q50 0 84.5 -28t34.5 -78q0 -29 -20.5 -64.5t-20.5 -39.5q0 -31 47 -31q77 0 124 67t77 185q21 81 40.5 230t23.5 169l83 465h-227l14 57h230q16 75 49 155
t84 156.5t111.5 136.5t137 97t154.5 37q87 0 158.5 -47.5t71.5 -130.5q0 -55 -35 -88t-90 -33q-50 0 -82.5 33.5t-32.5 83.5q0 21 17 55q19 34 12.5 52t-41.5 18q-46 0 -82.5 -30.5t-58 -74.5t-38.5 -107t-25 -115t-17 -112.5t-15 -85.5h246l-12 -57h-248z" />
    <glyph glyph-name="circumflex" unicode="&#x2c6;" horiz-adv-x="681" 
d="M246 1368h190l252 -356l-4 -4h-115l-227 200l-236 -200h-104l-4 4z" />
    <glyph glyph-name="caron" unicode="&#x2c7;" horiz-adv-x="681" 
d="M434 1008h-190l-248 356l4 4h109l231 -203l227 203h115l4 -4z" />
    <glyph glyph-name="uni02C9" unicode="&#x2c9;" horiz-adv-x="681" 
d="M680 1221h-678v147h678v-147z" />
    <glyph glyph-name="breve" unicode="&#x2d8;" horiz-adv-x="681" 
d="M31 1368h90q26 -178 223 -178q90 0 147 45.5t70 132.5h90q-5 -150 -84 -242t-225 -92q-149 0 -231 92t-80 242z" />
    <glyph glyph-name="dotaccent" unicode="&#x2d9;" horiz-adv-x="681" 
d="M338 1133q-52 0 -89.5 40.5t-37.5 92.5q0 53 37.5 93t89.5 40q54 0 93.5 -39t39.5 -94q0 -56 -38.5 -94.5t-94.5 -38.5z" />
    <glyph glyph-name="ring" unicode="&#x2da;" horiz-adv-x="681" 
d="M340 963q-90 0 -153.5 64.5t-63.5 154.5q0 88 64 152.5t153 64.5q90 0 154.5 -63.5t64.5 -153.5q0 -92 -64 -155.5t-155 -63.5zM340 1298q-48 0 -83.5 -34.5t-35.5 -81.5t36 -83t83 -36t84 36.5t37 82.5q0 47 -36.5 81.5t-84.5 34.5z" />
    <glyph glyph-name="ogonek" unicode="&#x2db;" horiz-adv-x="681" 
d="M516 -135l37 -62q-30 -30 -88 -65q-63 -39 -184 -31q-109 7 -142 98q-28 77 36 136t179 59h101l-13 -23l-63 -12q-34 -6 -54 -34t-14 -62q4 -24 30.5 -37.5t59.5 -17.5q10 -1 21 1t18 4.5t20.5 10t17.5 10t20 13.5t18 12z" />
    <glyph glyph-name="tilde" unicode="&#x2dc;" horiz-adv-x="681" 
d="M629 1327h88q-61 -258 -248 -258q-70 0 -174 49q-100 49 -148 49q-32 0 -59 -28.5t-33 -67.5h-86q15 107 77.5 181.5t164.5 74.5q66 0 170 -49q104 -51 141 -51q42 0 65 26t42 74z" />
    <glyph glyph-name="hungarumlaut" unicode="&#x2dd;" horiz-adv-x="681" 
d="M297 1200l-281 -180h-125l199 227q8 10 32 39t37.5 43t36 33.5t46 28t49.5 8.5q37 0 63.5 -26.5t26.5 -63.5q0 -26 -14.5 -48t-27.5 -32t-42 -29zM709 1200l-281 -180h-125l199 227q9 10 32 39t36.5 43t36 33.5t46 28t49.5 8.5q37 0 64 -26.5t27 -63.5q0 -26 -14.5 -48
t-27.5 -32t-42 -29z" />
    <glyph glyph-name="uni03A9" unicode="&#x3a9;" horiz-adv-x="1636" 
d="M1561 362l-64 -362h-584l-22 53q2 3 26.5 50t30.5 59t30 59.5t32.5 68.5t29 68.5t29 76t22 74t19.5 81t11 78t5 82.5q-1 270 -84.5 397t-230.5 127q-73 0 -127 -28t-94.5 -89.5t-61 -165t-20.5 -248.5q0 -91 20.5 -187t60 -192.5t70 -159t78.5 -151.5l-18 -53h-590
l-55 362h78q35 -86 69 -112.5t109 -26.5h192q-60 38 -100.5 67.5t-97.5 82t-91.5 104.5t-60 126.5t-25.5 156.5q0 273 187.5 437.5t484.5 164.5q299 0 482.5 -160.5t183.5 -429.5q0 -73 -25 -143t-59.5 -121.5t-93 -108.5t-102 -92t-111.5 -84h223q68 0 99.5 26t64.5 113h80
z" />
    <glyph glyph-name="uni03BC" unicode="&#x3bc;" horiz-adv-x="1138" 
d="M713 -20v176h-4q-35 -94 -120 -140.5t-194 -46.5q-20 0 -20 -35.5t12 -70.5q3 -9 11.5 -36.5t13.5 -44t10.5 -42t7.5 -47.5q5 -56 -37 -100t-104 -44t-103.5 40.5t-38.5 103.5q2 36 14.5 90.5t22.5 95.5t10 89t-18 83q-14 26 -20.5 66.5t-7.5 72.5t-1 97v467h-141v57h141
q48 0 142 4t141 4v-571v-30v-47t2 -38.5t7 -34.5t14 -23.5t24 -17t35 -4.5q53 0 102 43.5t74 94.5t25 85v478h-142v57h142q47 0 141 4t141 4v-762h138v-57h-138q-63 0 -141 -10q-117 -10 -141 -10z" />
    <glyph glyph-name="pi" unicode="&#x3c0;" horiz-adv-x="1304" 
d="M1186 973l65 -19q-4 -67 -33 -154.5t-55 -115.5q-49 -14 -137 -14q-10 -104 -10 -355q3 -165 88 -165q33 0 88 32l29 -63q-42 -61 -121 -102.5t-156 -41.5q-239 0 -239 273q0 138 18 428q-47 1 -99 2t-84 1.5t-65 0.5v-16q0 -128 -11.5 -237t-27.5 -177t-37 -122.5
t-35.5 -78t-27.5 -39.5q-99 -32 -158 -35l-20 50q103 135 152.5 319t49.5 340q-90 0 -145.5 -15.5t-128.5 -58.5l-39 70l15 21q64 89 110 126q103 83 274 82q516 -6 607 -6q51 0 80 15t53 55z" />
    <glyph glyph-name="endash" unicode="&#x2013;" 
d="M0 307v209h1024v-209h-1024z" />
    <glyph glyph-name="emdash" unicode="&#x2014;" horiz-adv-x="2048" 
d="M0 307v209h2048v-209h-2048z" />
    <glyph glyph-name="quoteleft" unicode="&#x2018;" horiz-adv-x="681" 
d="M430 1399l12 -51q-87 -45 -145.5 -126t-58.5 -173q0 -79 24 -107q12 54 49.5 82.5t94.5 28.5q58 0 98.5 -44t40.5 -102q0 -75 -51 -125.5t-125 -50.5q-107 0 -168.5 77.5t-61.5 186.5q0 130 83 239.5t208 164.5z" />
    <glyph glyph-name="quoteright" unicode="&#x2019;" horiz-adv-x="681" 
d="M252 731l-10 51q88 47 145 126t57 173q0 71 -22 107q-29 -111 -146 -111q-59 0 -98 42t-39 102q0 74 50 126t124 52q105 0 168.5 -79.5t63.5 -186.5q0 -126 -86.5 -240.5t-206.5 -161.5z" />
    <glyph glyph-name="quotesinglbase" unicode="&#x201a;" horiz-adv-x="681" 
d="M254 -377l-12 53q90 49 146 126.5t56 172.5q0 71 -22 105q-10 -53 -50 -82t-96 -29q-59 0 -98 43t-39 101q0 75 50.5 126.5t125.5 51.5q104 0 167 -80t63 -186q0 -126 -84.5 -236t-206.5 -166z" />
    <glyph glyph-name="quotedblleft" unicode="&#x201c;" 
d="M330 1399l12 -51q-87 -46 -146 -126.5t-59 -172.5q0 -78 25 -107q12 55 49 83t94 28q58 0 98.5 -44t40.5 -102q0 -75 -51 -125.5t-125 -50.5q-107 0 -168 77.5t-61 186.5q0 130 83 239.5t208 164.5zM870 1399l13 -51q-87 -46 -146 -126.5t-59 -172.5q0 -79 24 -107
q12 54 49.5 82.5t94.5 28.5q58 0 98.5 -44t40.5 -102q0 -75 -51 -125.5t-125 -50.5q-107 0 -168 77.5t-61 186.5q0 130 82.5 239.5t207.5 164.5z" />
    <glyph glyph-name="quotedblright" unicode="&#x201d;" 
d="M692 731l-10 51q89 47 146 126t57 173q0 69 -23 107q-29 -111 -145 -111q-59 0 -98 42t-39 102q0 74 50 126t124 52q105 0 168 -79t63 -187q0 -126 -86.5 -240.5t-206.5 -161.5zM152 731l-11 51q89 47 146 126t57 173q0 71 -22 107q-29 -111 -146 -111q-59 0 -98 42
t-39 102q0 74 50 126t124 52q105 0 168 -79t63 -187q0 -126 -86 -240.5t-206 -161.5z" />
    <glyph glyph-name="quotedblbase" unicode="&#x201e;" 
d="M694 -377l-12 53q90 49 146.5 126.5t56.5 172.5q0 69 -23 105q-10 -53 -50 -82t-95 -29q-59 0 -98 43t-39 101q0 75 50.5 126.5t125.5 51.5q104 0 166.5 -80t62.5 -186q0 -126 -84.5 -236t-206.5 -166zM156 -377l-13 53q90 49 146.5 126.5t56.5 172.5q0 71 -22 105
q-10 -53 -50 -82t-96 -29q-59 0 -98 43t-39 101q0 75 50.5 126.5t125.5 51.5q104 0 166.5 -80t62.5 -186q0 -126 -84 -236.5t-206 -165.5z" />
    <glyph glyph-name="dagger" unicode="&#x2020;" 
d="M543 -326h-62q-8 328 -20 445q-24 242 -94 418q127 177 110 356q-34 0 -89 -16t-89 -39q-20 -13 -54 -24t-55 -11q-48 0 -76 32t-28 80t28 80.5t76 32.5q21 0 55 -11t54 -24q34 -23 89 -39t89 -16q3 59 -4 102t-31 95q-3 6 -17.5 35.5t-19.5 42t-11.5 35t-6.5 40.5
q0 53 35.5 82t89.5 29t89.5 -29t35.5 -82q0 -18 -6.5 -40.5t-11.5 -35t-19.5 -42t-17.5 -35.5q-24 -52 -31 -95t-4 -102q34 0 89 16t89 39q20 13 54 24t55 11q48 0 76 -32.5t28 -80.5t-28 -80t-76 -32q-21 0 -55 11t-54 24q-34 23 -89 39t-89 16q-17 -179 110 -356
q-36 -88 -58.5 -186t-32.5 -202t-14.5 -199t-7.5 -216v-20.5t-0.5 -19t-0.5 -20.5z" />
    <glyph glyph-name="daggerdbl" unicode="&#x2021;" 
d="M512 1399q54 0 89.5 -29t35.5 -82q0 -18 -6.5 -40.5t-11.5 -35t-19.5 -42t-17.5 -35.5q-24 -52 -31 -95t-4 -102q34 0 89 16t89 39q20 13 54 24t55 11q48 0 76 -32.5t28 -80.5t-28 -80t-76 -32q-21 0 -55 11t-54 24q-34 23 -89 39t-89 16q-17 -179 110 -356
q-127 -177 -110 -357q33 0 88 16.5t90 39.5q20 13 54 23.5t55 10.5q48 0 76 -32t28 -80t-28 -80.5t-76 -32.5q-21 0 -55 11t-54 24q-34 23 -89 39t-89 16q-3 -59 4 -101.5t31 -94.5q4 -8 14 -29t15.5 -32.5t12.5 -29.5t10 -33t3 -30q0 -53 -35.5 -82t-89.5 -29t-89.5 29
t-35.5 82q0 15 3 30t10 33t12.5 29.5t15.5 32.5t14 29q24 52 31 94.5t4 101.5q-34 0 -89 -16t-89 -39q-20 -13 -54 -24t-55 -11q-48 0 -76 32.5t-28 80.5t28 80t76 32q21 0 55 -10.5t54 -23.5q35 -23 90 -39.5t88 -16.5q17 180 -110 357q127 177 110 356q-34 0 -89 -16
t-89 -39q-20 -13 -54 -24t-55 -11q-48 0 -76 32t-28 80t28 80.5t76 32.5q21 0 55 -11t54 -24q34 -23 89 -39t89 -16q3 59 -4 102t-31 95q-3 6 -17.5 35.5t-19.5 42t-11.5 35t-6.5 40.5q0 53 35.5 82t89.5 29z" />
    <glyph glyph-name="bullet" unicode="&#x2022;" horiz-adv-x="1269" 
d="M283 684q0 130 103.5 223.5t248.5 93.5t248.5 -93.5t103.5 -223.5t-103.5 -223.5t-248.5 -93.5t-248.5 93.5t-103.5 223.5z" />
    <glyph glyph-name="ellipsis" unicode="&#x2026;" horiz-adv-x="2048" 
d="M340 305q68 0 119 -50t51 -118q0 -70 -50 -119t-120 -49q-69 0 -118.5 50t-49.5 118q0 67 50 117.5t118 50.5zM1022 305q68 0 119 -50t51 -118q0 -70 -50 -119t-120 -49q-69 0 -118.5 50t-49.5 118q0 67 50 117.5t118 50.5zM1704 305q68 0 119 -50t51 -118
q0 -70 -50 -119t-120 -49q-69 0 -118.5 50t-49.5 118q0 67 50 117.5t118 50.5z" />
    <glyph glyph-name="perthousand" unicode="&#x2030;" horiz-adv-x="2048" 
d="M1425 256q0 101 51.5 199.5t142 162.5t193.5 64q112 0 169 -66t57 -180q0 -160 -82 -299q-46 -78 -114 -126t-152 -48q-129 0 -197 81.5t-68 211.5zM1866 614q-51 0 -98 -55t-77 -131.5t-47.5 -151.5t-17.5 -122q0 -61 23 -94t80 -40q34 -5 84.5 30.5t97.5 111.5
q29 45 52.5 132t23.5 144q0 30 -6 59t-19 56.5t-38 44t-58 16.5zM950 -37q-128 0 -197 81.5t-69 211.5q0 100 52.5 198.5t143.5 163t193 64.5q112 0 168.5 -66t56.5 -180q0 -96 -33.5 -194.5t-93.5 -167.5q-97 -111 -221 -111zM1126 614q-51 0 -98 -55t-76.5 -131.5
t-47 -151.5t-17.5 -122q0 -62 22.5 -94.5t79.5 -39.5q34 -4 78.5 28.5t84.5 88.5t67.5 137.5t27.5 163.5q0 68 -29.5 122t-91.5 54zM1110 1436h51l-911 -1538h-100l815 1372l-4 4q-41 -37 -104 -57.5t-124 -20.5q-50 0 -117 27q14 -83 -2 -180t-57 -183t-116.5 -143.5
t-168.5 -57.5q-121 0 -189.5 83.5t-68.5 207.5q0 91 37 173.5t94.5 137.5t126 87t131.5 32q40 0 72.5 -10t48 -20.5t39.5 -30.5q26 -21 42 -31t51 -20.5t79 -10.5q96 0 182.5 48t122.5 110q5 8 11.5 13t15.5 7t15.5 2t16 -0.5t11.5 -0.5zM213 858q0 -135 106 -135
q57 0 106.5 46t79.5 112.5t47 135t17 120.5q0 56 -16 100q-68 24 -125 61q-44 6 -95 -63t-85.5 -175.5t-34.5 -201.5z" />
    <glyph glyph-name="guilsinglleft" unicode="&#x2039;" horiz-adv-x="681" 
d="M150 408v14q233 195 346 301q12 7 22 2t10 -20q0 -19 -196 -293q45 -53 124 -162.5t79 -136.5q0 -8 -10 -12t-19 3q-96 87 -356 304z" />
    <glyph glyph-name="guilsinglright" unicode="&#x203a;" horiz-adv-x="681" 
d="M532 422v-14q-260 -217 -356 -304q-9 -7 -19 -3t-10 12q0 27 79 136.5t124 162.5q-196 274 -196 293q0 15 10 20t22 -2q113 -106 346 -301z" />
    <glyph glyph-name="fraction" unicode="&#x2044;" horiz-adv-x="342" 
d="M682 1362l-920 -1362h-106l919 1362h107z" />
    <glyph glyph-name="Euro" unicode="&#x20ac;" horiz-adv-x="1251" 
d="M961 489h-420v-127q0 -167 64 -253t179 -86q68 0 120 16.5t86.5 41.5t63.5 69t46 85.5t37 104.5h61v-340h-70l-51 68q-99 -99 -293 -99q-216 0 -371 145.5t-208 374.5h-154l45 111h86q-2 20 -2 64q0 23 4 77h-141l47 111h117q24 104 75.5 196t124 162.5t170.5 111
t207 40.5q193 0 291 -98l53 67h70v-340h-61q-18 61 -33.5 101.5t-43.5 85.5t-63 71t-89 43t-124 17q-115 0 -179 -86.5t-64 -253.5v-117h571l-47 -111h-524v-141h465z" />
    <glyph glyph-name="afii61289" unicode="&#x2113;" horiz-adv-x="1005" 
d="M911 309l54 -53q-160 -285 -428 -285q-174 0 -258 84q-45 49 -68 114.5t-23 197.5v90l-125 -72l-30 74l155 100v262q0 202 25 308.5t92 189.5q114 141 275 141q83 0 140.5 -42t82 -105t24.5 -142q0 -160 -81.5 -285t-260.5 -270v-141q0 -175 42 -252.5t139 -77.5
q124 0 245 164zM485 936v-195q79 89 121.5 188t42.5 240q0 207 -84 207q-53 0 -66.5 -85t-13.5 -355z" />
    <glyph glyph-name="trademark" unicode="&#x2122;" horiz-adv-x="1761" 
d="M45 1143l12 225h686l9 -225h-29q-10 31 -17 51t-18 43.5t-22.5 37.5t-28 28.5t-36.5 21t-47 10t-60 0.5v-630h94v-31h-377v31h94v630q-33 3 -60 -0.5t-47 -10t-36.5 -21t-28 -28.5t-22.5 -37.5t-18 -43.5t-17 -51h-31zM1626 1335v-630h92v-31h-372v31h98v628h-4
l-217 -659h-41l-215 659h-2v-565q0 -12 1 -21t5 -15.5t6.5 -11t10.5 -7.5t11 -5t15.5 -2.5t16 -0.5h20h20.5v-31h-242v31h19.5h19t15.5 0.5t15 2.5t11.5 5t10.5 7.5t6 11t5 15.5t1 21v567h-103v33h320l129 -420l135 420h305v-33h-92z" />
    <glyph glyph-name="Omega" unicode="&#x2126;" horiz-adv-x="1636" 
d="M1561 362l-64 -362h-584l-22 53q2 3 26.5 50t30.5 59t30 59.5t32.5 68.5t29 68.5t29 76t22 74t19.5 81t11 78t5 82.5q-1 270 -84.5 397t-230.5 127q-73 0 -127 -28t-94.5 -89.5t-61 -165t-20.5 -248.5q0 -91 20.5 -187t60 -192.5t70 -159t78.5 -151.5l-18 -53h-590
l-55 362h78q35 -86 69 -112.5t109 -26.5h192q-60 38 -100.5 67.5t-97.5 82t-91.5 104.5t-60 126.5t-25.5 156.5q0 273 187.5 437.5t484.5 164.5q299 0 482.5 -160.5t183.5 -429.5q0 -73 -25 -143t-59.5 -121.5t-93 -108.5t-102 -92t-111.5 -84h223q68 0 99.5 26t64.5 113h80
z" />
    <glyph glyph-name="estimated" unicode="&#x212e;" horiz-adv-x="1677" 
d="M1610 645h-1252q-10 0 -10 -8v-379q0 -23 17 -43q95 -96 216.5 -150.5t256.5 -54.5q147 0 275 61.5t222 168.5h113q-107 -124 -267.5 -196.5t-344.5 -72.5q-157 0 -299.5 55t-245.5 147.5t-164 221t-61 269.5q0 189 103 349t280 252.5t387 92.5q158 0 301 -54.5
t247 -147.5t165 -221.5t61 -270.5v-19zM1325 694v381q0 27 -18 45q-94 92 -214.5 144.5t-254.5 52.5q-133 0 -254.5 -54t-216.5 -149q-19 -19 -19 -47v-373q0 -12 10 -12h959q8 0 8 12z" />
    <glyph glyph-name="partialdiff" unicode="&#x2202;" horiz-adv-x="1222" 
d="M580 852h2q75 0 145 -30.5t109 -84.5q21 125 24 219q4 87 -6 157t-45 134q-31 54 -83.5 84.5t-117.5 30.5q-140 0 -329 -156q-21 -1 -52 36t-48 88t-3 83q51 25 84 38t100 26.5t144 13.5q322 0 497 -287q64 -104 92.5 -224.5t28.5 -227.5q0 -285 -114 -482
q-76 -140 -200 -219.5t-296 -79.5q-193 0 -309.5 111.5t-116.5 296.5q0 199 135 334q139 139 359 139zM662 741h-3q-112 0 -180 -108q-86 -149 -86 -383q0 -93 33.5 -144t99.5 -51q102 0 185 195q68 148 102 383q-22 44 -61 76t-90 32z" />
    <glyph glyph-name="Delta" unicode="&#x2206;" horiz-adv-x="1441" 
d="M1366 0h-1292v84l563 1243l145 33l584 -1276v-84zM977 141l-373 850l-364 -850h737z" />
    <glyph glyph-name="product" unicode="&#x220f;" horiz-adv-x="1587" 
d="M1528 1372v-76q-49 -4 -78 -8t-53 -14t-35 -20.5t-18.5 -35t-9 -50.5t-1.5 -72v-969q0 -48 1.5 -75.5t9.5 -52.5t19.5 -37t35.5 -22t52.5 -14t76.5 -8v-76h-676v76q42 3 65 6.5t43.5 13.5t29 20.5t14.5 37t7 53t1 78.5v1075q0 48 -14 60t-66 12h-285q-49 0 -60.5 -11
t-11.5 -59v-1077q0 -52 0.5 -77.5t6 -52.5t13.5 -37.5t26 -21t40 -14t60 -6.5v-76h-662v76q47 4 75 8t52 14.5t35 22.5t19 36.5t10 52.5t2 75v969q0 46 -1.5 72.5t-10 50.5t-19.5 35t-36.5 21t-54.5 13.5t-79 7.5v76h1477z" />
    <glyph glyph-name="summation" unicode="&#x2211;" horiz-adv-x="1251" 
d="M1202 297l-108 -473h-1043v80l455 602l-440 786v80h1026q11 -189 26 -379l-78 -20q-48 157 -88 225q-20 34 -40 50t-63 25t-120 9h-283l326 -582l-465 -624h498q55 0 82.5 1t60 10t48 21.5t39 43t41 67t46.5 100.5z" />
    <glyph glyph-name="minus" unicode="&#x2212;" 
d="M967 373h-908v166h908v-166z" />
    <glyph glyph-name="uni2215" unicode="&#x2215;" horiz-adv-x="342" 
d="M682 1362l-920 -1362h-106l919 1362h107z" />
    <glyph glyph-name="uni2219" unicode="&#x2219;" horiz-adv-x="681" 
d="M338 623q68 0 119 -50t51 -118q0 -70 -50 -119t-120 -49q-69 0 -118.5 50t-49.5 118q0 67 50 117.5t118 50.5z" />
    <glyph glyph-name="radical" unicode="&#x221a;" horiz-adv-x="1204" 
d="M1192 1696l-375 -2009l-76 -31l-450 1046l-185 -81l-30 92l420 188l295 -727h6l278 1544z" />
    <glyph glyph-name="infinity" unicode="&#x221e;" horiz-adv-x="1562" 
d="M1473 555v-2q0 -165 -100 -264t-236 -99q-92 0 -179.5 46.5t-177.5 173.5q-84 -108 -168 -164t-194 -56q-134 0 -232 98t-98 253q0 159 99 258.5t249 99.5q108 0 193 -52t164 -157q1 2 27.5 31.5t33 36.5t33.5 33t41.5 35t43.5 27.5t53 25.5t56.5 13.5t65.5 6.5
q137 -2 231.5 -96t94.5 -248zM436 358h4q68 0 125 46.5t123 130.5q-32 46 -45 64t-42 51t-49.5 46.5t-52.5 25t-67 11.5q-75 0 -122.5 -52t-47.5 -140q0 -74 50.5 -128.5t123.5 -54.5zM1128 733h-2q-20 0 -40 -5.5t-35.5 -11.5t-36 -22.5t-30.5 -24t-31 -30.5t-26 -29
t-27 -32.5t-23 -28.5q85 -112 140 -151.5t122 -39.5q71 0 114 58t43 125q0 84 -46 138t-122 54z" />
    <glyph glyph-name="integral" unicode="&#x222b;" horiz-adv-x="882" 
d="M342 -47l-45 768q-9 127 -3 232.5t17 190t33.5 151.5t46.5 117t55.5 86.5t61.5 60t64 38t62.5 20t57.5 5.5q63 0 116.5 -34.5t53.5 -90.5q0 -65 -39.5 -101t-93.5 -36q-28 0 -48.5 23t-29.5 50.5t-21.5 50.5t-27.5 23q-19 0 -29.5 -21.5t-15.5 -84t2 -176.5l41 -717
q11 -197 -6 -356.5t-54 -266.5t-92 -179t-118.5 -104t-134.5 -32q-68 0 -119 38.5t-51 92.5q-1 60 49.5 102.5t107.5 42.5q25 0 43 -25t25.5 -55.5t19.5 -55.5t27 -25q34 0 43.5 67.5t1.5 200.5z" />
    <glyph glyph-name="approxequal" unicode="&#x2248;" horiz-adv-x="1146" 
d="M961 911l118 -116q-63 -99 -142 -154t-159 -55q-62 0 -111 18t-118 60q-37 22 -56 32t-51 20.5t-63 10.5q-61 0 -106.5 -36t-96.5 -103l-117 114q48 87 139 147t187 60q105 0 213 -65q51 -32 70 -42.5t47 -20t55 -9.5q53 0 97.5 35t93.5 104zM961 520l118 -117
q-62 -99 -140.5 -153.5t-162.5 -54.5q-59 0 -108 18t-119 57q-37 23 -58 34.5t-51.5 21.5t-60.5 10q-62 0 -106.5 -35.5t-96.5 -103.5l-117 114q47 86 139 146.5t187 60.5q46 0 88 -11t65 -22.5t58 -31.5q9 -5 40.5 -25t44.5 -26.5t38 -14.5t49 -8q56 0 98 33.5t95 107.5z
" />
    <glyph glyph-name="notequal" unicode="&#x2260;" horiz-adv-x="1146" 
d="M862 1008l-71 -160h260v-180h-334l-111 -248h445v-182h-521l-100 -226l-145 64l73 162h-262v182h336l109 248h-445v180h520l99 221z" />
    <glyph glyph-name="lessequal" unicode="&#x2264;" horiz-adv-x="1146" 
d="M1049 227l-947 432v197l945 430v-203l-756 -323v-4l758 -326v-203zM1053 -27h-955v187h955v-187z" />
    <glyph glyph-name="greaterequal" unicode="&#x2265;" horiz-adv-x="1146" 
d="M104 1286l947 -432v-197l-947 -430v203l758 326v4l-758 323v203zM1044 -27h-946v187h946v-187z" />
    <glyph glyph-name="lozenge" unicode="&#x25ca;" horiz-adv-x="1253" 
d="M1161 649l-424 -796h-225l-424 796l430 801h219zM950 649l-319 623h-8l-322 -623l322 -626h6z" />
    </font>
</defs>
</svg>
